[PAS] Houseki no Kuni - 03 [WEB 720p E-AC-3] [1930B828].mkv


File Size393.7 MB (412,799,355 bytes)
DownloadClickNUpload | Go4Up
  • Ezfile
  • FileFactory
  • FilePup
  • MegaShares
  • Nitroflare
  • NowDownload
  • Oboom
  • OpenLoad
  • Rapidgator
  • Share-Online
  • ToutBox
  • Uplea
  • Uploadable
  • Uppit
  • UsersCloud
| Jheberg | MultiUp
  • ClickNupload
  • Fichier
  • Filerio
  • Free
  • Fufox
  • HugeFiles
  • Mightyupload
  • ToutBox
  • Turbobit
  • UpToBox
  • Uplea
  • UploadBaz
  • Uploadable
  • Uploaded
  • Uppit
  • Userscloud
| OpenLoad | SolidFiles
Sendspace: Part1, Part2
HashesCRC32: 1930B828, MD5: F48EA66A8E88222C9B40997AA2A0A15F, SHA1: B8F6064E6CCCD98730C04D53CE9C2B4437A5F2B2, SHA256: 5DFFCD103D8344362BD06BD9FEE0AC717A97F717EA6309857A1C767F3ABE947F, ED2K: A18072E72733F6D6DD65B21E2A815C60
Screenshots
screenshotscreenshotscreenshotscreenshotscreenshot
SubtitlesAll Attachments | eng [ASS]
Additional Info
General
Unique ID                                : 226885112003439385642722138202576889404 (0xAAB07BAD611748779B4B3A5FE9BDA63C)
Complete name                            : [PAS] Houseki no Kuni - 03 [WEB 720p E-AC-3] [1930B828].mkv
Format                                   : Matroska
Format version                           : Version 4 / Version 2
File size                                : 394 MiB
Duration                                 : 24 min 7 s
Overall bit rate                         : 2 281 kb/s
Encoded date                             : UTC 2017-11-11 04:06:30
Writing application                      : mkvmerge v16.0.0 ('Protest') 64-bit
Writing library                          : libebml v1.3.5 + libmatroska v1.4.8
Attachments                              : HTOWERT.TTF / Minion Pro Bold Italic.ttf / Minion Pro Bold.ttf / DARK&BLACK.TTF / EDMUNDSBURYSERIF-REGULAR.TTF / GOODFISH-BOLD.TTF

Video
ID                                       : 2
Format                                   : AVC
Format/Info                              : Advanced Video Codec
Format profile                           : High 4:4:4 Predictive@L5
Format settings, CABAC                   : Yes
Format settings, ReFrames                : 16 frames
Codec ID                                 : V_MPEG4/ISO/AVC
Duration                                 : 24 min 7 s
Bit rate                                 : 2 050 kb/s
Width                                    : 1 280 pixels
Height                                   : 720 pixels
Display aspect ratio                     : 16:9
Frame rate mode                          : Constant
Frame rate                               : 23.976 (24000/1001) FPS
Color space                              : YUV
Chroma subsampling                       : 4:4:4
Bit depth                                : 10 bits
Scan type                                : Progressive
Bits/(Pixel*Frame)                       : 0.093
Stream size                              : 354 MiB (90%)
Writing library                          : x264 core 148 r2705kMod 3f5ed56
Encoding settings                        : cabac=1 / ref=16 / deblock=1:-1:-1 / analyse=0x3:0x113 / me=umh / subme=10 / psy=1 / fade_compensate=0.00 / psy_rd=0.70:0.10 / mixed_ref=1 / me_range=32 / chroma_me=1 / trellis=2 / 8x8dct=1 / cqm=0 / deadzone=21,11 / fast_pskip=0 / chroma_qp_offset=3 / threads=12 / lookahead_threads=2 / sliced_threads=0 / nr=0 / decimate=0 / interlaced=0 / bluray_compat=0 / constrained_intra=0 / fgo=0 / bframes=7 / b_pyramid=2 / b_adapt=2 / b_bias=0 / direct=3 / weightb=1 / open_gop=0 / weightp=2 / keyint=240 / keyint_min=23 / scenecut=40 / intra_refresh=0 / rc_lookahead=48 / rc=crf / mbtree=1 / crf=17.0000 / qcomp=0.70 / qpmin=0 / qpmax=81 / qpstep=4 / ip_ratio=1.40 / aq=3:0.80
Language                                 : Japanese
Default                                  : Yes
Forced                                   : No
Color range                              : Limited
Matrix coefficients                      : BT.709

Audio
ID                                       : 1
Format                                   : E-AC-3
Format/Info                              : Enhanced Audio Coding 3
Format settings, Endianness              : Big
Codec ID                                 : A_EAC3
Duration                                 : 24 min 7 s
Bit rate mode                            : Constant
Bit rate                                 : 224 kb/s
Channel(s)                               : 2 channels
Channel positions                        : Front: L R
Sampling rate                            : 48.0 kHz
Frame rate                               : 187.500 FPS (256 spf)
Compression mode                         : Lossy
Stream size                              : 38.7 MiB (10%)
Language                                 : Japanese
Default                                  : Yes
Forced                                   : No

Text
ID                                       : 3
Format                                   : ASS
Codec ID                                 : S_TEXT/ASS
Codec ID/Info                            : Advanced Sub Station Alpha
Duration                                 : 23 min 33 s
Bit rate                                 : 154 b/s
Count of elements                        : 378
Compression mode                         : Lossless
Stream size                              : 26.7 KiB (0%)
Language                                 : English
Default                                  : Yes
Forced                                   : No

Menu
00:00:00.000                             : :Intro
00:00:39.039                             : :OP
00:02:09.004                             : :Part A
00:12:46.057                             : :Part B
00:22:10.037                             : :ED
00:23:40.044                             : :Preview

Other Files in this Torrent
[PAS] Houseki no Kuni - 03 [WEB 720p E-AC-3] [1930B828].mkv
beta
Anime DDL+NZB mirror
Current Time: 20/11/2017 00:17



About/FAQs