[PAS] Houseki no Kuni - 02 [WEB 720p E-AC-3] [259EF4A2].mkv


File Size457.1 MB (479,319,299 bytes)
DownloadClickNUpload | Go4Up
  • Ezfile
  • FileFactory
  • FilePup
  • MegaShares
  • Nitroflare
  • NowDownload
  • Oboom
  • OpenLoad
  • Rapidgator
  • Share-Online
  • ToutBox
  • Uplea
  • Uploadable
  • Uppit
  • UsersCloud
| Jheberg | MultiUp
  • ClickNupload
  • Fichier
  • Filerio
  • Free
  • Fufox
  • HugeFiles
  • Mightyupload
  • ToutBox
  • Turbobit
  • UpToBox
  • Uplea
  • UploadBaz
  • Uploadable
  • Uploaded
  • Uppit
  • Userscloud
| OpenLoad | SolidFiles
Sendspace: Part1, Part2
HashesCRC32: 259EF4A2, MD5: CB51AD26D54173109882F0FAFD8B443B, SHA1: F9F2F71D9DC20ECDD7500249FE5A5CE8B5A25741, SHA256: A1BBA141F4B5A2406BEEDE649725A15D7AC7C5C33769167EBA64708E800CCA92, ED2K: E83AC94C1FCEB8E48C25A79D76D720C3
Screenshots
screenshotscreenshotscreenshotscreenshotscreenshot
SubtitlesAll Attachments | eng [ASS]
Additional Info
General
Unique ID                                : 189727065821309253534684316885159594548 (0x8EBC1A8E38373065AC7404B8A1754A34)
Complete name                            : [PAS] Houseki no Kuni - 02 [WEB 720p E-AC-3] [259EF4A2].mkv
Format                                   : Matroska
Format version                           : Version 4 / Version 2
File size                                : 457 MiB
Duration                                 : 24 min 7 s
Overall bit rate                         : 2 648 kb/s
Encoded date                             : UTC 2017-11-11 03:30:38
Writing application                      : mkvmerge v16.0.0 ('Protest') 64-bit
Writing library                          : libebml v1.3.5 + libmatroska v1.4.8
Attachments                              : GOODFISH-BOLD.TTF / HTOWERT.TTF / Minion Pro Bold Italic.ttf / Minion Pro Bold.ttf / DARK&BLACK.TTF / EDMUNDSBURYSERIF-REGULAR.TTF

Video
ID                                       : 2
Format                                   : AVC
Format/Info                              : Advanced Video Codec
Format profile                           : High 4:4:4 Predictive@L5
Format settings, CABAC                   : Yes
Format settings, ReFrames                : 16 frames
Codec ID                                 : V_MPEG4/ISO/AVC
Duration                                 : 24 min 7 s
Bit rate                                 : 2 417 kb/s
Width                                    : 1 280 pixels
Height                                   : 720 pixels
Display aspect ratio                     : 16:9
Frame rate mode                          : Constant
Frame rate                               : 23.976 (24000/1001) FPS
Color space                              : YUV
Chroma subsampling                       : 4:4:4
Bit depth                                : 10 bits
Scan type                                : Progressive
Bits/(Pixel*Frame)                       : 0.109
Stream size                              : 417 MiB (91%)
Writing library                          : x264 core 148 r2705kMod 3f5ed56
Encoding settings                        : cabac=1 / ref=16 / deblock=1:-1:-1 / analyse=0x3:0x113 / me=umh / subme=10 / psy=1 / fade_compensate=0.00 / psy_rd=0.70:0.10 / mixed_ref=1 / me_range=32 / chroma_me=1 / trellis=2 / 8x8dct=1 / cqm=0 / deadzone=21,11 / fast_pskip=0 / chroma_qp_offset=3 / threads=12 / lookahead_threads=2 / sliced_threads=0 / nr=0 / decimate=0 / interlaced=0 / bluray_compat=0 / constrained_intra=0 / fgo=0 / bframes=7 / b_pyramid=2 / b_adapt=2 / b_bias=0 / direct=3 / weightb=1 / open_gop=0 / weightp=2 / keyint=240 / keyint_min=23 / scenecut=40 / intra_refresh=0 / rc_lookahead=48 / rc=crf / mbtree=1 / crf=17.0000 / qcomp=0.70 / qpmin=0 / qpmax=81 / qpstep=4 / ip_ratio=1.40 / aq=3:0.80
Language                                 : Japanese
Default                                  : Yes
Forced                                   : No
Color range                              : Limited
Matrix coefficients                      : BT.709

Audio
ID                                       : 1
Format                                   : E-AC-3
Format/Info                              : Enhanced Audio Coding 3
Format settings, Endianness              : Big
Codec ID                                 : A_EAC3
Duration                                 : 24 min 7 s
Bit rate mode                            : Constant
Bit rate                                 : 224 kb/s
Channel(s)                               : 2 channels
Channel positions                        : Front: L R
Sampling rate                            : 48.0 kHz
Frame rate                               : 187.500 FPS (256 spf)
Compression mode                         : Lossy
Stream size                              : 38.7 MiB (8%)
Language                                 : Japanese
Default                                  : Yes
Forced                                   : No

Text
ID                                       : 3
Format                                   : ASS
Codec ID                                 : S_TEXT/ASS
Codec ID/Info                            : Advanced Sub Station Alpha
Duration                                 : 23 min 55 s
Bit rate                                 : 160 b/s
Count of elements                        : 409
Compression mode                         : Lossless
Stream size                              : 28.0 KiB (0%)
Language                                 : English
Default                                  : Yes
Forced                                   : No

Menu
00:00:00.000                             : :Intro
00:00:43.043                             : :OP
00:02:13.008                             : :Part A
00:10:31.047                             : :Part B
00:22:10.329                             : :ED
00:23:40.044                             : :Preview

Other Files in this Torrent
[PAS] Houseki no Kuni - 02 [WEB 720p E-AC-3] [259EF4A2].mkv
beta
Anime DDL+NZB mirror
Current Time: 20/11/2017 22:45



About/FAQs