[P-N] Pocket Monsters 001 'Pokemon! I Choose You!' [Digital Remaster] [E4EBF910].mkv


File Size860.9 MB (902,713,260 bytes)
DownloadJheberg | MultiUp
  • ClickNupload
  • Fichier
  • Filerio
  • Free
  • Fufox
  • HugeFiles
  • Mightyupload
  • ToutBox
  • Turbobit
  • UpToBox
  • Uplea
  • UploadBaz
  • Uploadable
  • Uploaded
  • Uppit
  • Userscloud
| OpenLoad | UsersCloud
Sendspace: Part1, Part2, Part3
SolidFiles: Part1, Part2
HashesCRC32: E4EBF910, MD5: 5B8762969620BCBB77B26D488E504497, SHA1: 4B829D3EC2BEF9B6574F12BDECE402C9E565721F, SHA256: 13AB90C31DC76A5E618248D7AD691579F660BD8B21D65A2FC4E267A97C3C2861, ED2K: A5A6E85FF852722E398857CDD755F663
Screenshots
screenshotscreenshotscreenshotscreenshotscreenshot
SubtitlesAll Attachments | eng [ASS]
Additional Info
General
Unique ID                                : 247380185349730840141803393332723286779 (0xBA1BB0CF2DFFE10C8019C66614F782FB)
Complete name                            : [P-N] Pocket Monsters 001 'Pokemon! I Choose You!' [Digital Remaster] [E4EBF910].mkv
Format                                   : Matroska
Format version                           : Version 4 / Version 2
File size                                : 861 MiB
Duration                                 : 23 min 15 s
Overall bit rate                         : 5 173 kb/s
Movie name                               : Reversioning by FMA1394 (#Pokemon-Neogenesis@irc.hoshinet.org)
Encoded date                             : UTC 2016-11-30 23:53:22
Writing application                      : mkvmerge v9.5.0 ('Quiet Fire') 64bit
Writing library                          : libebml v1.3.4 + libmatroska v1.4.5
Attachments                              : Eurostile.ttf / SegoeBd.ttf / SegoeBI.ttf / A-OTF-ShinGoPro-DeBold.otf

Video
ID                                       : 1
Format                                   : AVC
Format/Info                              : Advanced Video Codec
Format profile                           : High 10@L5
Format settings, CABAC                   : Yes
Format settings, ReFrames                : 16 frames
Codec ID                                 : V_MPEG4/ISO/AVC
Duration                                 : 23 min 15 s
Bit rate                                 : 4 975 kb/s
Width                                    : 960 pixels
Height                                   : 720 pixels
Display aspect ratio                     : 4:3
Frame rate mode                          : Constant
Frame rate                               : 23.976 (24000/1001) FPS
Color space                              : YUV
Chroma subsampling                       : 4:2:0
Bit depth                                : 10 bits
Scan type                                : Progressive
Bits/(Pixel*Frame)                       : 0.300
Stream size                              : 828 MiB (96%)
Writing library                          : x264 core 148 r2721 72d53ab
Encoding settings                        : cabac=1 / ref=16 / deblock=1:0:0 / analyse=0x3:0x133 / me=umh / subme=10 / psy=1 / psy_rd=1.00:0.00 / mixed_ref=1 / me_range=16 / chroma_me=1 / trellis=2 / 8x8dct=1 / cqm=0 / deadzone=21,11 / fast_pskip=0 / chroma_qp_offset=-2 / threads=8 / lookahead_threads=2 / sliced_threads=0 / nr=0 / decimate=0 / interlaced=0 / bluray_compat=0 / constrained_intra=0 / bframes=16 / b_pyramid=2 / b_adapt=2 / b_bias=0 / direct=3 / weightb=1 / open_gop=0 / weightp=2 / keyint=300 / keyint_min=24 / scenecut=40 / intra_refresh=0 / rc_lookahead=60 / rc=crf / mbtree=1 / crf=16.0 / qcomp=0.60 / qpmin=0 / qpmax=81 / qpstep=4 / ip_ratio=1.40 / aq=3:1.00
Language                                 : English
Default                                  : Yes
Forced                                   : No

Audio
ID                                       : 2
Format                                   : AAC
Format/Info                              : Advanced Audio Codec
Format profile                           : LC
Codec ID                                 : A_AAC
Duration                                 : 23 min 15 s
Bit rate                                 : 178 kb/s
Channel(s)                               : 2 channels
Channel positions                        : Front: L R
Sampling rate                            : 48.0 kHz
Frame rate                               : 46.875 FPS (1024 spf)
Compression mode                         : Lossy
Delay relative to video                  : 20 ms
Stream size                              : 29.7 MiB (3%)
Default                                  : Yes
Forced                                   : No

Text
ID                                       : 3
Format                                   : ASS
Codec ID                                 : S_TEXT/ASS
Codec ID/Info                            : Advanced Sub Station Alpha
Duration                                 : 23 min 15 s
Bit rate                                 : 131 b/s
Count of elements                        : 374
Compression mode                         : Lossless
Stream size                              : 22.4 KiB (0%)
Language                                 : English
Default                                  : Yes
Forced                                   : No

Menu
00:00:00.000                             : en:Opening Theme
00:01:28.060                             : en:Sponsor Card A
00:01:38.098                             : en:Part A
00:11:44.871                             : en:Who's that?
00:11:56.758                             : en:Part B
00:21:09.140                             : en:Ending Theme
00:22:30.182                             : en:Next Episode Preview
00:23:00.212                             : en:Sponsor Card B
00:23:10.222                             : en:See you next time!
beta
Anime DDL+NZB mirror
Current Time: 20/07/2024 02:57



About/FAQs

Discord