One-Punch Man (2019) - 08 - The Resistance of the Strong [KaiDubs] [1080p].mp4


File Size785.0 MB (823,099,788 bytes)
DownloadClickNUpload | Jheberg | UploadFiles
MultiUp: Part1
  • BdUpload
  • DownAce
  • Fichier
  • FileCloud
  • Filerio
  • FilesCdn
  • IndiShare
  • Kbagi
  • Turbobit
  • UpToBox
  • Uppit
, Part2
  • BdUpload
  • DownAce
  • Fichier
  • FileCloud
  • Filerio
  • FilesCdn
  • IndiShare
  • Kbagi
  • Turbobit
  • UpToBox
  • Uppit

Sendspace: Part1, Part2, Part3
SolidFiles: Part1, Part2
ZippyShare: Part1, Part2
HashesCRC32: C8D5563F, MD5: 2F6E5AFD9957DD8E3930DFD0AAC36823, SHA1: 24DA98E08EE827D4EB50E176940A744656213D68, SHA256: 65F702A0CBD7EC2E1DAA5584B23A2E2F017353DFEF053242B377610A3DF31861, ED2K: 0AAD156A8CBA4CE4475F57D68D7EAE58
Screenshots
screenshotscreenshotscreenshotscreenshotscreenshot
Additional Info
General
Complete name                            : One-Punch Man (2019) - 08 - The Resistance of the Strong [KaiDubs] [1080p].mp4
Format                                   : MPEG-4
Format profile                           : Base Media
Codec ID                                 : isom (isom/iso2/avc1/mp41)
File size                                : 785 MiB
Duration                                 : 22 min 2 s
Overall bit rate mode                    : Variable
Overall bit rate                         : 4 980 kb/s
Movie name                               : Ripped by KaiDubs
Writing application                      : Lavf58.33.100

Video
ID                                       : 1
Format                                   : AVC
Format/Info                              : Advanced Video Codec
Format profile                           : High@L4
Format settings                          : CABAC / 4 Ref Frames
Format settings, CABAC                   : Yes
Format settings, ReFrames                : 4 frames
Format settings, GOP                     : M=3, N=60
Codec ID                                 : avc1
Codec ID/Info                            : Advanced Video Coding
Duration                                 : 22 min 2 s
Bit rate                                 : 4 845 kb/s
Width                                    : 1 920 pixels
Height                                   : 1 080 pixels
Display aspect ratio                     : 16:9
Frame rate mode                          : Variable
Frame rate                               : 29.970 (29970/1000) FPS
Minimum frame rate                       : 29.960 FPS
Maximum frame rate                       : 29.970 FPS
Color space                              : YUV
Chroma subsampling                       : 4:2:0
Bit depth                                : 8 bits
Scan type                                : Progressive
Bits/(Pixel*Frame)                       : 0.078
Stream size                              : 764 MiB (97%)
Title                                    : Adult Swim
Language                                 : English
Codec configuration box                  : avcC

Audio
ID                                       : 2
Format                                   : AAC LC
Format/Info                              : Advanced Audio Codec Low Complexity
Codec ID                                 : mp4a-40-2
Duration                                 : 22 min 2 s
Bit rate mode                            : Constant
Bit rate                                 : 126 kb/s
Channel(s)                               : 2 channels
Channel layout                           : L R
Sampling rate                            : 44.1 kHz
Frame rate                               : 43.066 FPS (1024 SPF)
Compression mode                         : Lossy
Stream size                              : 19.8 MiB (3%)
Title                                    : 2.0 AAC
Language                                 : English
Default                                  : Yes
Alternate group                          : 1

Text
ID                                       : 3
Format                                   : Timed Text
Muxing mode                              : sbtl
Codec ID                                 : tx3g
Duration                                 : 21 min 59 s
Bit rate mode                            : Variable
Bit rate                                 : 100 b/s
Stream size                              : 16.2 KiB (0%)
Title                                    : Closed Captions
Language                                 : English
Default                                  : Yes
Forced                                   : No
Alternate group                          : 3

Other Files in this Torrent
One-Punch Man (2019) - 08 - The Resistance of the Strong [KaiDubs] [1080p].mp4
beta
Anime DDL+NZB mirror
Current Time: 05/12/2021 11:22



About/FAQs

Discord