[NoobSubs] Violet Evergarden 11 (1080p 8bit AAC).mp4


File Size565.3 MB (592,792,983 bytes)
DownloadClickNUpload | Go4Up | Jheberg | MultiUp | OpenLoad
Sendspace: Part1, Part2
SolidFiles: Part1, Part2
ZippyShare: Part1, Part2
Encrypted DownloadDirect
Password:
HashesCRC32: AB3E5120, MD5: 7616DB820CB269BD6250FEA8FEB4E8EC, SHA1: 625C23F2611E1828AF7429B348B85EDCC984DB51, SHA256: 3C926858E01D2B4126B09C62712DFD21882A9A73F850B789608F99369EF72E65, ED2K: D1610A885AB6010C21B0948EC84FA0CC
Screenshots
screenshotscreenshotscreenshotscreenshotscreenshot
Additional Info
General
Complete name                            : [NoobSubs] Violet Evergarden 11 (1080p 8bit AAC).mp4
Format                                   : MPEG-4
Format profile                           : Base Media
Codec ID                                 : isom (isom/avc1)
File size                                : 565 MiB
Duration                                 : 23 min 39 s
Overall bit rate mode                    : Variable
Overall bit rate                         : 3 340 kb/s
Movie name                               : [NoobSubs] Violet Evergarden 11 (1080p 8bit AAC)
Album                                    : Violet Evergarden
Track name/Position                      : 11
Track name/Total                         : 13
Performer                                : Subs: [Vivid-Asenshi]
Encoded date                             : UTC 2018-05-20 14:34:28
Tagged date                              : UTC 2018-05-20 19:44:35
replaygain_track_gain                    : +0.58 dB
replaygain_track_minmax                  : 107,197
replaygain_track_peak                    : 1.350000
replaygain_undo                          : -3,-3

Video
ID                                       : 1
Format                                   : AVC
Format/Info                              : Advanced Video Codec
Format profile                           : High@L4
Format settings, CABAC                   : Yes
Format settings, ReFrames                : 4 frames
Codec ID                                 : avc1
Codec ID/Info                            : Advanced Video Coding
Duration                                 : 23 min 39 s
Bit rate                                 : 3 084 kb/s
Maximum bit rate                         : 15.3 Mb/s
Width                                    : 1 920 pixels
Height                                   : 1 080 pixels
Display aspect ratio                     : 16:9
Frame rate mode                          : Constant
Frame rate                               : 23.976 (24000/1001) FPS
Color space                              : YUV
Chroma subsampling                       : 4:2:0
Bit depth                                : 8 bits
Scan type                                : Progressive
Bits/(Pixel*Frame)                       : 0.062
Stream size                              : 522 MiB (92%)
Title                                    : 264@GPAC0.7.0-rev0-gbd5c9af-master
Writing library                          : x264 core 155 r2901 7d0ff22
Encoding settings                        : cabac=1 / ref=4 / deblock=1:0:0 / analyse=0x3:0x133 / me=umh / subme=10 / psy=1 / psy_rd=1.00:0.00 / mixed_ref=1 / me_range=24 / chroma_me=1 / trellis=2 / 8x8dct=1 / cqm=0 / deadzone=21,11 / fast_pskip=1 / chroma_qp_offset=-2 / threads=12 / lookahead_threads=2 / sliced_threads=0 / nr=0 / decimate=1 / interlaced=0 / bluray_compat=0 / constrained_intra=0 / bframes=7 / b_pyramid=2 / b_adapt=2 / b_bias=0 / direct=3 / weightb=1 / open_gop=0 / weightp=2 / keyint=250 / keyint_min=23 / scenecut=40 / intra_refresh=0 / rc_lookahead=60 / rc=crf / mbtree=1 / crf=17.3 / qcomp=0.60 / qpmin=0 / qpmax=69 / qpstep=4 / ip_ratio=1.40 / aq=1:1.10
Encoded date                             : UTC 2018-05-20 14:34:28
Tagged date                              : UTC 2018-05-20 14:34:36

Audio
ID                                       : 2
Format                                   : AAC
Format/Info                              : Advanced Audio Codec
Format profile                           : LC
Codec ID                                 : 40
Duration                                 : 23 min 39 s
Bit rate mode                            : Variable
Bit rate                                 : 252 kb/s
Maximum bit rate                         : 258 kb/s
Channel(s)                               : 2 channels
Channel positions                        : Front: L R
Sampling rate                            : 48.0 kHz
Frame rate                               : 46.875 FPS (1024 spf)
Compression mode                         : Lossy
Stream size                              : 42.7 MiB (8%)
Title                                    : aac@GPAC0.7.0-rev0-gbd5c9af-master
Encoded date                             : UTC 2018-05-20 14:34:34
Tagged date                              : UTC 2018-05-20 14:34:36

Other Files in this Torrent
[NoobSubs] Violet Evergarden 11 (1080p 8bit AAC).mp4
beta
Anime DDL+NZB mirror
Current Time: 04/04/2020 21:03



About/FAQs