[NoobSubs] Violet Evergarden 10 (1080p 8bit AAC).mp4


File Size464.2 MB (486,706,038 bytes)
DownloadClickNUpload | Go4Up | Jheberg | MultiUp | OpenLoad | SolidFiles | ZippyShare
Sendspace: Part1, Part2
Encrypted DownloadDirect
Password:
HashesCRC32: 95C21DA9, MD5: 30D7FB050D195232880CAF18B824D367, SHA1: 139107E660D7F20A1FB3B2C0919BAF62DBAD7415, SHA256: 511B80F44DC14F060C065741FCB6DC3A5D4A2EEF24F7B51322F71617553A9B35, ED2K: 36709E423997A3DE4A46DF116506B2DF
Screenshots
screenshotscreenshotscreenshotscreenshotscreenshot
Additional Info
General
Complete name                            : [NoobSubs] Violet Evergarden 10 (1080p 8bit AAC).mp4
Format                                   : MPEG-4
Format profile                           : Base Media
Codec ID                                 : isom (isom/avc1)
File size                                : 464 MiB
Duration                                 : 23 min 39 s
Overall bit rate mode                    : Variable
Overall bit rate                         : 2 742 kb/s
Movie name                               : [NoobSubs] Violet Evergarden 10 (1080p 8bit AAC)
Album                                    : Violet Evergarden
Track name/Position                      : 10
Track name/Total                         : 13
Performer                                : Subs: [Vivid-Asenshi]
Encoded date                             : UTC 2018-05-20 13:44:02
Tagged date                              : UTC 2018-05-20 19:44:03
replaygain_track_gain                    : +0.75 dB
replaygain_track_minmax                  : 106,196
replaygain_track_peak                    : 0.890000
replaygain_undo                          : -2,-2

Video
ID                                       : 1
Format                                   : AVC
Format/Info                              : Advanced Video Codec
Format profile                           : High@L4
Format settings, CABAC                   : Yes
Format settings, ReFrames                : 4 frames
Codec ID                                 : avc1
Codec ID/Info                            : Advanced Video Coding
Duration                                 : 23 min 39 s
Bit rate                                 : 2 486 kb/s
Maximum bit rate                         : 10.3 Mb/s
Width                                    : 1 920 pixels
Height                                   : 1 080 pixels
Display aspect ratio                     : 16:9
Frame rate mode                          : Constant
Frame rate                               : 23.976 (24000/1001) FPS
Color space                              : YUV
Chroma subsampling                       : 4:2:0
Bit depth                                : 8 bits
Scan type                                : Progressive
Bits/(Pixel*Frame)                       : 0.050
Stream size                              : 421 MiB (91%)
Title                                    : 264@GPAC0.7.0-rev0-gbd5c9af-master
Writing library                          : x264 core 155 r2901 7d0ff22
Encoding settings                        : cabac=1 / ref=4 / deblock=1:0:0 / analyse=0x3:0x133 / me=umh / subme=10 / psy=1 / psy_rd=1.00:0.00 / mixed_ref=1 / me_range=24 / chroma_me=1 / trellis=2 / 8x8dct=1 / cqm=0 / deadzone=21,11 / fast_pskip=1 / chroma_qp_offset=-2 / threads=12 / lookahead_threads=2 / sliced_threads=0 / nr=0 / decimate=1 / interlaced=0 / bluray_compat=0 / constrained_intra=0 / bframes=7 / b_pyramid=2 / b_adapt=2 / b_bias=0 / direct=3 / weightb=1 / open_gop=0 / weightp=2 / keyint=250 / keyint_min=23 / scenecut=40 / intra_refresh=0 / rc_lookahead=60 / rc=crf / mbtree=1 / crf=17.3 / qcomp=0.60 / qpmin=0 / qpmax=69 / qpstep=4 / ip_ratio=1.40 / aq=1:1.10
Encoded date                             : UTC 2018-05-20 13:44:02
Tagged date                              : UTC 2018-05-20 13:44:07

Audio
ID                                       : 2
Format                                   : AAC
Format/Info                              : Advanced Audio Codec
Format profile                           : LC
Codec ID                                 : 40
Duration                                 : 23 min 39 s
Bit rate mode                            : Variable
Bit rate                                 : 252 kb/s
Maximum bit rate                         : 263 kb/s
Channel(s)                               : 2 channels
Channel positions                        : Front: L R
Sampling rate                            : 48.0 kHz
Frame rate                               : 46.875 FPS (1024 spf)
Compression mode                         : Lossy
Stream size                              : 42.7 MiB (9%)
Title                                    : aac@GPAC0.7.0-rev0-gbd5c9af-master
Encoded date                             : UTC 2018-05-20 13:44:05
Tagged date                              : UTC 2018-05-20 13:44:07

Other Files in this Torrent
[NoobSubs] Violet Evergarden 10 (1080p 8bit AAC).mp4
beta
Anime DDL+NZB mirror
Current Time: 04/04/2020 21:08



About/FAQs