[NoobSubs] Violet Evergarden 02 (720p Dual Audio 8bit AAC)[0C48B2D8].mkv


File Size278.6 MB (292,147,073 bytes)
DownloadClickNUpload | DiskoKosmiko | Go4Up | Jheberg | MultiUp | OpenLoad | Sendspace | SolidFiles | ZippyShare
Encrypted DownloadDirect
Password:
HashesCRC32: 0C48B2D8, MD5: 94C9AC3FB7264C6B38A354AECB569571, SHA1: A0A24953E2BE64BBE2C0074A5475EA3CECE7D6BD, SHA256: E1044B2122834BBA5F13AC0AF900DE3CBF4793A2618658D6F68E061A6F584A13, ED2K: 467C4943AB9E70085A4560BCDC620AAB
Screenshots
screenshotscreenshotscreenshotscreenshotscreenshot
SubtitlesAll Attachments | Signs/Karaoke [Vivid-Asenshi] [eng, ASS], [Vivid-Asenshi] [eng, ASS]
Additional Info
General
Unique ID                                : 275389124295215764760627089366621456395 (0xCF2E041E129E73BA3E5531ECC145880B)
Complete name                            : [NoobSubs] Violet Evergarden 02 (720p Dual Audio 8bit AAC)[0C48B2D8].mkv
Format                                   : Matroska
Format version                           : Version 4 / Version 2
File size                                : 279 MiB
Duration                                 : 23 min 39 s
Overall bit rate                         : 1 646 kb/s
Track name/Position                      : 2
Track name/Total                         : 13
Encoded date                             : UTC 2018-06-17 12:41:57
Writing application                      : mkvmerge v23.0.0 ('The Bride Said No') 64-bit
Writing library                          : libebml v1.3.6 + libmatroska v1.4.9
Attachments                              : IwaMinPro-Md-Kami.ttf / justs.ttf / Cabin-Bold.otf / Cabin-BoldItalic.otf / FOT-KleePro-DB-Str.otf
ARTIST                                   : Subs: [Vivid-Asenshi]

Video
ID                                       : 1
Format                                   : AVC
Format/Info                              : Advanced Video Codec
Format profile                           : High@L4
Format settings, CABAC                   : Yes
Format settings, ReFrames                : 6 frames
Codec ID                                 : V_MPEG4/ISO/AVC
Duration                                 : 23 min 39 s
Bit rate                                 : 1 229 kb/s
Width                                    : 1 280 pixels
Height                                   : 720 pixels
Display aspect ratio                     : 16:9
Frame rate mode                          : Constant
Frame rate                               : 23.976 (24000/1001) FPS
Color space                              : YUV
Chroma subsampling                       : 4:2:0
Bit depth                                : 8 bits
Scan type                                : Progressive
Bits/(Pixel*Frame)                       : 0.056
Stream size                              : 208 MiB (75%)
Writing library                          : x264 core 155 r2901 7d0ff22
Encoding settings                        : cabac=1 / ref=6 / deblock=1:0:0 / analyse=0x3:0x133 / me=umh / subme=10 / psy=1 / psy_rd=1.00:0.00 / mixed_ref=1 / me_range=24 / chroma_me=1 / trellis=2 / 8x8dct=1 / cqm=0 / deadzone=21,11 / fast_pskip=1 / chroma_qp_offset=-2 / threads=12 / lookahead_threads=2 / sliced_threads=0 / nr=0 / decimate=1 / interlaced=0 / bluray_compat=0 / constrained_intra=0 / bframes=7 / b_pyramid=2 / b_adapt=2 / b_bias=0 / direct=3 / weightb=1 / open_gop=0 / weightp=2 / keyint=250 / keyint_min=23 / scenecut=40 / intra_refresh=0 / rc_lookahead=60 / rc=crf / mbtree=1 / crf=17.3 / qcomp=0.60 / qpmin=0 / qpmax=69 / qpstep=4 / ip_ratio=1.40 / aq=1:1.10
Default                                  : Yes
Forced                                   : No

Audio #1
ID                                       : 2
Format                                   : AAC
Format/Info                              : Advanced Audio Codec
Format profile                           : LC
Codec ID                                 : A_AAC
Duration                                 : 23 min 39 s
Bit rate                                 : 158 kb/s
Channel(s)                               : 2 channels
Channel positions                        : Front: L R
Sampling rate                            : 48.0 kHz
Frame rate                               : 46.875 FPS (1024 spf)
Compression mode                         : Lossy
Delay relative to video                  : 9 ms
Stream size                              : 26.7 MiB (10%)
Title                                    : English 2.0 channel AAC
Language                                 : English
Default                                  : Yes
Forced                                   : No

Audio #2
ID                                       : 3
Format                                   : AAC
Format/Info                              : Advanced Audio Codec
Format profile                           : LC
Codec ID                                 : A_AAC
Duration                                 : 23 min 39 s
Bit rate                                 : 252 kb/s
Channel(s)                               : 2 channels
Channel positions                        : Front: L R
Sampling rate                            : 48.0 kHz
Frame rate                               : 46.875 FPS (1024 spf)
Compression mode                         : Lossy
Stream size                              : 42.7 MiB (15%)
Title                                    : Japanese 2.0 channel AAC
Language                                 : Japanese
Default                                  : No
Forced                                   : No

Text #1
ID                                       : 4
Format                                   : ASS
Codec ID                                 : S_TEXT/ASS
Codec ID/Info                            : Advanced Sub Station Alpha
Bit rate                                 : 0 b/s
Count of elements                        : 0
Compression mode                         : Lossless
Stream size                              : 0.00 Byte (0%)
Title                                    : Signs/Karaoke [Vivid-Asenshi]
Language                                 : English
Default                                  : Yes
Forced                                   : No

Text #2
ID                                       : 5
Format                                   : ASS
Codec ID                                 : S_TEXT/ASS
Codec ID/Info                            : Advanced Sub Station Alpha
Duration                                 : 23 min 29 s
Bit rate                                 : 112 b/s
Count of elements                        : 376
Compression mode                         : Lossless
Stream size                              : 19.4 KiB (0%)
Title                                    : [Vivid-Asenshi]
Language                                 : English
Default                                  : No
Forced                                   : No

Menu
00:00:00.000                             : :Intro
00:01:53.947                             : :Part A
00:11:09.878                             : :Part B

Other Files in this Torrent
[NoobSubs] Violet Evergarden 02 (720p Dual Audio 8bit AAC)[0C48B2D8].mkv
beta
Anime DDL+NZB mirror
Current Time: 09/12/2019 02:26



About/FAQs