[NoobSubs] Violet Evergarden 05 (720p Dual Audio 8bit AAC)[8E0F4F1F].mkv


File Size284.7 MB (298,548,719 bytes)
DownloadClickNUpload | DiskoKosmiko | Go4Up | Jheberg | MultiUp | OpenLoad | Sendspace | SolidFiles | ZippyShare
Encrypted DownloadDirect
Password:
HashesCRC32: 8E0F4F1F, MD5: 0D9A4578F1DCAF1C9506D5DF10A8EE11, SHA1: 99CD8D45CC24F2B77E2EBC7989AE25D06F8E6B0C, SHA256: 3F8E2BC0411F9055ED2262FD48995379C07F15CD79B6A3949C468BD02A6EEC03, ED2K: 1573A246BA1D796B1BD13542B9DF26FA
Screenshots
screenshotscreenshotscreenshotscreenshotscreenshot
SubtitlesAll Attachments | Signs/Karaoke [Vivid-Asenshi] [eng, ASS], [Vivid-Asenshi] [eng, ASS]
Additional Info
General
Unique ID                                : 90614875268940908600949886710033445651 (0x442BCA487F92BD38BECD6962D6487313)
Complete name                            : [NoobSubs] Violet Evergarden 05 (720p Dual Audio 8bit AAC)[8E0F4F1F].mkv
Format                                   : Matroska
Format version                           : Version 4 / Version 2
File size                                : 285 MiB
Duration                                 : 23 min 40 s
Overall bit rate                         : 1 682 kb/s
Track name/Position                      : 5
Track name/Total                         : 13
Encoded date                             : UTC 2018-06-17 12:42:34
Writing application                      : mkvmerge v23.0.0 ('The Bride Said No') 64-bit
Writing library                          : libebml v1.3.6 + libmatroska v1.4.9
Attachments                              : Cabin-BoldItalic.otf / FOT-KleePro-DB-Str.otf / IwaMinPro-Md-Kami.ttf / justs.ttf / Cabin-Bold.otf
ARTIST                                   : Subs: [Vivid-Asenshi]

Video
ID                                       : 1
Format                                   : AVC
Format/Info                              : Advanced Video Codec
Format profile                           : High@L4
Format settings, CABAC                   : Yes
Format settings, ReFrames                : 6 frames
Codec ID                                 : V_MPEG4/ISO/AVC
Duration                                 : 23 min 40 s
Bit rate                                 : 1 265 kb/s
Width                                    : 1 280 pixels
Height                                   : 720 pixels
Display aspect ratio                     : 16:9
Frame rate mode                          : Constant
Frame rate                               : 23.976 (24000/1001) FPS
Color space                              : YUV
Chroma subsampling                       : 4:2:0
Bit depth                                : 8 bits
Scan type                                : Progressive
Bits/(Pixel*Frame)                       : 0.057
Stream size                              : 214 MiB (75%)
Writing library                          : x264 core 155 r2901 7d0ff22
Encoding settings                        : cabac=1 / ref=6 / deblock=1:0:0 / analyse=0x3:0x133 / me=umh / subme=10 / psy=1 / psy_rd=1.00:0.00 / mixed_ref=1 / me_range=24 / chroma_me=1 / trellis=2 / 8x8dct=1 / cqm=0 / deadzone=21,11 / fast_pskip=1 / chroma_qp_offset=-2 / threads=12 / lookahead_threads=2 / sliced_threads=0 / nr=0 / decimate=1 / interlaced=0 / bluray_compat=0 / constrained_intra=0 / bframes=7 / b_pyramid=2 / b_adapt=2 / b_bias=0 / direct=3 / weightb=1 / open_gop=0 / weightp=2 / keyint=250 / keyint_min=23 / scenecut=40 / intra_refresh=0 / rc_lookahead=60 / rc=crf / mbtree=1 / crf=17.3 / qcomp=0.60 / qpmin=0 / qpmax=69 / qpstep=4 / ip_ratio=1.40 / aq=1:1.10
Default                                  : Yes
Forced                                   : No

Audio #1
ID                                       : 2
Format                                   : AAC
Format/Info                              : Advanced Audio Codec
Format profile                           : LC
Codec ID                                 : A_AAC
Duration                                 : 23 min 39 s
Bit rate                                 : 158 kb/s
Channel(s)                               : 2 channels
Channel positions                        : Front: L R
Sampling rate                            : 48.0 kHz
Frame rate                               : 46.875 FPS (1024 spf)
Compression mode                         : Lossy
Delay relative to video                  : 9 ms
Stream size                              : 26.7 MiB (9%)
Title                                    : English 2.0 channel AAC
Language                                 : English
Default                                  : Yes
Forced                                   : No

Audio #2
ID                                       : 3
Format                                   : AAC
Format/Info                              : Advanced Audio Codec
Format profile                           : LC
Codec ID                                 : A_AAC
Duration                                 : 23 min 39 s
Bit rate                                 : 252 kb/s
Channel(s)                               : 2 channels
Channel positions                        : Front: L R
Sampling rate                            : 48.0 kHz
Frame rate                               : 46.875 FPS (1024 spf)
Compression mode                         : Lossy
Stream size                              : 42.7 MiB (15%)
Title                                    : Japanese 2.0 channel AAC
Language                                 : Japanese
Default                                  : No
Forced                                   : No

Text #1
ID                                       : 4
Format                                   : ASS
Codec ID                                 : S_TEXT/ASS
Codec ID/Info                            : Advanced Sub Station Alpha
Bit rate                                 : 0 b/s
Count of elements                        : 0
Compression mode                         : Lossless
Stream size                              : 0.00 Byte (0%)
Title                                    : Signs/Karaoke [Vivid-Asenshi]
Language                                 : English
Default                                  : Yes
Forced                                   : No

Text #2
ID                                       : 5
Format                                   : ASS
Codec ID                                 : S_TEXT/ASS
Codec ID/Info                            : Advanced Sub Station Alpha
Duration                                 : 23 min 38 s
Bit rate                                 : 108 b/s
Count of elements                        : 316
Compression mode                         : Lossless
Stream size                              : 18.8 KiB (0%)
Title                                    : [Vivid-Asenshi]
Language                                 : English
Default                                  : No
Forced                                   : No

Menu
00:00:00.000                             : :Intro
00:01:08.026                             : :Part A
00:09:06.004                             : :Part B

Other Files in this Torrent
[NoobSubs] Violet Evergarden 05 (720p Dual Audio 8bit AAC)[8E0F4F1F].mkv
beta
Anime DDL+NZB mirror
Current Time: 15/12/2019 18:54



About/FAQs