File Size76.55 MB (80,267,601 bytes)
DownloadClickNUpload | Jheberg | MultiUp
  • BdUpload
  • DownAce
  • Fichier
  • FileCloud
  • Filerio
  • FilesCdn
  • IndiShare
  • Kbagi
  • Turbobit
  • UpToBox
  • Uppit
| OpenLoad | Sendspace | SolidFiles | ZippyShare
HashesCRC32: 39260C6B, MD5: 47DB1623F80B889DEDFD0049EB321969, SHA1: 4A6F4671B65097A066515C374B6C60A77F13B5DC, SHA256: F4D03ABEA17ACD4D095ED3B690EC512D3519921E49750B617B6D33DCB4D3887D, ED2K: 9F023232E2295AA74D204423FAB9A413
Screenshots
screenshotscreenshotscreenshotscreenshot
Additional Info
General
Complete name                            : [NoobSubs] Nora to Oujo to Noraneko Heart 12 (1080p Blu-ray 8bit AAC).mp4
Format                                   : MPEG-4
Format profile                           : Base Media
Codec ID                                 : isom (isom/avc1)
File size                                : 76.5 MiB
Duration                                 : 3 min 30 s
Overall bit rate mode                    : Variable
Overall bit rate                         : 3 057 kb/s
Movie name                               : [NoobSubs] Nora to Oujo to Noraneko Heart 12 (1080p Blu-ray 8bit AAC)
Album                                    : Nora to Oujo to Noraneko Heart / Nora, Princess, and Stray Cat
Track name/Position                      : 12
Track name/Total                         : 12
Performer                                : Subs: [RH] - [SNSbu]
Encoded date                             : UTC 2019-08-31 03:20:46
Tagged date                              : UTC 2019-09-02 05:51:34
replaygain_undo                          : 2,2
replaygain_track_peak                    : 0.620000
replaygain_track_minmax                  : 86,174
replaygain_track_gain                    : +1.08 dB

Video
ID                                       : 1
Format                                   : AVC
Format/Info                              : Advanced Video Codec
Format profile                           : High@L4
Format settings                          : CABAC / 4 Ref Frames
Format settings, CABAC                   : Yes
Format settings, ReFrames                : 4 frames
Codec ID                                 : avc1
Codec ID/Info                            : Advanced Video Coding
Duration                                 : 3 min 29 s
Bit rate                                 : 2 772 kb/s
Maximum bit rate                         : 12.4 Mb/s
Width                                    : 1 920 pixels
Height                                   : 1 080 pixels
Display aspect ratio                     : 16:9
Frame rate mode                          : Constant
Frame rate                               : 29.970 (30000/1001) FPS
Color space                              : YUV
Chroma subsampling                       : 4:2:0
Bit depth                                : 8 bits
Scan type                                : Progressive
Bits/(Pixel*Frame)                       : 0.045
Stream size                              : 69.4 MiB (91%)
Title                                    : 264@GPAC0.7.0-rev0-gbd5c9af-master
Writing library                          : x264 core 157 r2935 545de2f
Encoding settings                        : cabac=1 / ref=4 / deblock=1:1:1 / analyse=0x3:0x133 / me=umh / subme=10 / psy=1 / psy_rd=0.40:0.00 / mixed_ref=1 / me_range=24 / chroma_me=1 / trellis=2 / 8x8dct=1 / cqm=0 / deadzone=21,11 / fast_pskip=1 / chroma_qp_offset=-2 / threads=12 / lookahead_threads=2 / sliced_threads=0 / nr=0 / decimate=1 / interlaced=0 / bluray_compat=0 / constrained_intra=0 / bframes=7 / b_pyramid=2 / b_adapt=2 / b_bias=0 / direct=3 / weightb=1 / open_gop=0 / weightp=2 / keyint=250 / keyint_min=25 / scenecut=40 / intra_refresh=0 / rc_lookahead=60 / rc=crf / mbtree=1 / crf=17.3 / qcomp=0.60 / qpmin=0 / qpmax=69 / qpstep=4 / ip_ratio=1.40 / aq=1:1.00
Encoded date                             : UTC 2019-08-31 03:20:46
Tagged date                              : UTC 2019-08-31 03:20:46
Codec configuration box                  : avcC

Audio
ID                                       : 2
Format                                   : AAC LC
Format/Info                              : Advanced Audio Codec Low Complexity
Codec ID                                 : mp4a-40-2
Duration                                 : 3 min 30 s
Bit rate mode                            : Variable
Bit rate                                 : 282 kb/s
Maximum bit rate                         : 337 kb/s
Channel(s)                               : 2 channels
Channel layout                           : L R
Sampling rate                            : 48.0 kHz
Frame rate                               : 46.875 FPS (1024 SPF)
Compression mode                         : Lossy
Stream size                              : 7.07 MiB (9%)
Encoded date                             : UTC 2019-08-31 03:20:41
Tagged date                              : UTC 2019-08-31 03:20:46

Other Files in this Torrent
[NoobSubs] Nora to Oujo to Noraneko Heart 12 (1080p Blu-ray 8bit AAC).mp4
beta
Anime DDL+NZB mirror
Current Time: 11/11/2019 22:00



About/FAQs