File Size87.92 MB (92,186,949 bytes)
DownloadClickNUpload | Jheberg | MultiUp
  • BdUpload
  • DownAce
  • Fichier
  • FileCloud
  • Filerio
  • FilesCdn
  • IndiShare
  • Kbagi
  • Turbobit
  • UpToBox
  • Uppit
| OpenLoad | Sendspace | SolidFiles | ZippyShare
HashesCRC32: 0AB79861, MD5: 0C52F6EBE1B8FACD3B4275BBC8BA40AF, SHA1: E129C4639B5FB1BA82EF612ED345648534820323, SHA256: E8E081DC177C84E96D13CBA58020BE2A7A4401D3B0E2E5B7CAA35FAAC9CF0026, ED2K: A35CB613FB1EAEBEFAFAD1C016FF4838
Screenshots
screenshotscreenshotscreenshotscreenshot
Additional Info
General
Complete name                            : [NoobSubs] Nora to Oujo to Noraneko Heart 11 (1080p Blu-ray 8bit AAC).mp4
Format                                   : MPEG-4
Format profile                           : Base Media
Codec ID                                 : isom (isom/avc1)
File size                                : 87.9 MiB
Duration                                 : 3 min 30 s
Overall bit rate mode                    : Variable
Overall bit rate                         : 3 511 kb/s
Movie name                               : [NoobSubs] Nora to Oujo to Noraneko Heart 11 (1080p Blu-ray 8bit AAC)
Album                                    : Nora to Oujo to Noraneko Heart / Nora, Princess, and Stray Cat
Track name/Position                      : 11
Track name/Total                         : 12
Performer                                : Subs: [RH] - [SNSbu]
Encoded date                             : UTC 2019-08-31 03:15:25
Tagged date                              : UTC 2019-09-02 05:51:30
replaygain_track_peak                    : 0.870000
replaygain_track_minmax                  : 88,176
replaygain_track_gain                    : +0.63 dB

Video
ID                                       : 1
Format                                   : AVC
Format/Info                              : Advanced Video Codec
Format profile                           : High@L4
Format settings                          : CABAC / 4 Ref Frames
Format settings, CABAC                   : Yes
Format settings, ReFrames                : 4 frames
Codec ID                                 : avc1
Codec ID/Info                            : Advanced Video Coding
Duration                                 : 3 min 30 s
Bit rate                                 : 3 231 kb/s
Maximum bit rate                         : 18.7 Mb/s
Width                                    : 1 920 pixels
Height                                   : 1 080 pixels
Display aspect ratio                     : 16:9
Frame rate mode                          : Constant
Frame rate                               : 29.970 (30000/1001) FPS
Color space                              : YUV
Chroma subsampling                       : 4:2:0
Bit depth                                : 8 bits
Scan type                                : Progressive
Bits/(Pixel*Frame)                       : 0.052
Stream size                              : 80.9 MiB (92%)
Title                                    : 264@GPAC0.7.0-rev0-gbd5c9af-master
Writing library                          : x264 core 157 r2935 545de2f
Encoding settings                        : cabac=1 / ref=4 / deblock=1:1:1 / analyse=0x3:0x133 / me=umh / subme=10 / psy=1 / psy_rd=0.40:0.00 / mixed_ref=1 / me_range=24 / chroma_me=1 / trellis=2 / 8x8dct=1 / cqm=0 / deadzone=21,11 / fast_pskip=1 / chroma_qp_offset=-2 / threads=12 / lookahead_threads=2 / sliced_threads=0 / nr=0 / decimate=1 / interlaced=0 / bluray_compat=0 / constrained_intra=0 / bframes=7 / b_pyramid=2 / b_adapt=2 / b_bias=0 / direct=3 / weightb=1 / open_gop=0 / weightp=2 / keyint=250 / keyint_min=25 / scenecut=40 / intra_refresh=0 / rc_lookahead=60 / rc=crf / mbtree=1 / crf=17.3 / qcomp=0.60 / qpmin=0 / qpmax=69 / qpstep=4 / ip_ratio=1.40 / aq=1:1.00
Encoded date                             : UTC 2019-08-31 03:15:25
Tagged date                              : UTC 2019-08-31 03:15:25
Codec configuration box                  : avcC

Audio
ID                                       : 2
Format                                   : AAC LC
Format/Info                              : Advanced Audio Codec Low Complexity
Codec ID                                 : mp4a-40-2
Duration                                 : 3 min 30 s
Bit rate mode                            : Variable
Bit rate                                 : 277 kb/s
Maximum bit rate                         : 340 kb/s
Channel(s)                               : 2 channels
Channel layout                           : L R
Sampling rate                            : 48.0 kHz
Frame rate                               : 46.875 FPS (1024 SPF)
Compression mode                         : Lossy
Stream size                              : 6.93 MiB (8%)
Encoded date                             : UTC 2019-08-31 03:15:20
Tagged date                              : UTC 2019-08-31 03:15:25

Other Files in this Torrent
[NoobSubs] Nora to Oujo to Noraneko Heart 11 (1080p Blu-ray 8bit AAC).mp4
beta
Anime DDL+NZB mirror
Current Time: 14/11/2019 12:24



About/FAQs