Neon Genesis Evangelion - 1x24 DC - The Beginning and the End, or Knockin' on Heaven's Door [1080p][x265][bk].mkv


File Size285.8 MB (299,734,520 bytes)
DownloadClickNUpload | Go4Up
  • Ezfile
  • FileFactory
  • FilePup
  • MegaShares
  • Nitroflare
  • NowDownload
  • Oboom
  • OpenLoad
  • Rapidgator
  • Share-Online
  • ToutBox
  • Uplea
  • Uploadable
  • Uppit
  • UsersCloud
| Jheberg | MultiUp
  • ClickNupload
  • Fichier
  • Filerio
  • Free
  • Fufox
  • HugeFiles
  • Mightyupload
  • ToutBox
  • Turbobit
  • UpToBox
  • Uplea
  • UploadBaz
  • Uploadable
  • Uploaded
  • Uppit
  • Userscloud
| OpenLoad | Sendspace | SolidFiles
HashesCRC32: 5F1A027D, MD5: 18B746F42C67B740C288ACB6F96927FE, SHA1: F49ED8277A19721185F09A52C730FF986037E256, SHA256: 052149B78C3211B3373890C9D5103E452C183DEC2629F529A7A595905CAE9709, ED2K: 834D628C67709CD1BCD195D239A3EC35
Screenshots
screenshotscreenshotscreenshotscreenshotscreenshot
SubtitlesAll Attachments | eng [ASS], eng [ASS]
Additional Info
General
Unique ID                                : 179491963247198571603002288721287425434 (0x8708E509B69B3EAD9FE01A3268BFAD9A)
Complete name                            : Neon Genesis Evangelion - 1x24 DC - The Beginning and the End, or Knockin' on Heaven's Door [1080p][x265][bk].mkv
Format                                   : Matroska
Format version                           : Version 4 / Version 2
File size                                : 286 MiB
Duration                                 : 26 min 15 s
Overall bit rate                         : 1 522 kb/s
Encoded date                             : UTC 2015-12-11 12:26:58
Writing application                      : mkvmerge v8.4.0 ('A better way to fly') 64bit
Writing library                          : libebml v1.3.1 + libmatroska v1.4.2
Attachments                              : FOT-MatisseVPro-EB.otf / FOT-MatisseVPro-UB.otf / Franklin Gothic Medium Italic.ttf / Franklin Gothic Medium.ttf / MVBOLI.TTF / nrkis.ttf / OCRASTD.OTF / TEKTONPRO-BOLD.OTF

Video
ID                                       : 1
Format                                   : HEVC
Format/Info                              : High Efficiency Video Coding
Format profile                           : Main 10@L4@Main
Codec ID                                 : V_MPEGH/ISO/HEVC
Duration                                 : 26 min 15 s
Bit rate                                 : 1 069 kb/s
Width                                    : 1 440 pixels
Height                                   : 1 080 pixels
Display aspect ratio                     : 4:3
Frame rate mode                          : Constant
Frame rate                               : 23.976 (24000/1001) FPS
Color space                              : YUV
Chroma subsampling                       : 4:2:0
Bit depth                                : 10 bits
Bits/(Pixel*Frame)                       : 0.029
Stream size                              : 201 MiB (70%)
Writing library                          : x265 1.8+31-b6156a08b1de:[Windows][GCC 5.2.0][64 bit] 10bit
Encoding settings                        : wpp / ctu=64 / min-cu-size=8 / max-tu-size=32 / tu-intra-depth=1 / tu-inter-depth=1 / me=1 / subme=2 / merange=57 / no-rect / no-amp / max-merge=2 / temporal-mvp / no-early-skip / rdpenalty=0 / no-tskip / no-tskip-fast / strong-intra-smoothing / no-lossless / no-cu-lossless / no-constrained-intra / no-fast-intra / open-gop / no-temporal-layers / interlace=0 / keyint=250 / min-keyint=23 / scenecut=40 / rc-lookahead=20 / lookahead-slices=0 / bframes=4 / bframe-bias=0 / b-adapt=2 / ref=3 / limit-refs=0 / weightp / no-weightb / aq-mode=1 / qg-size=32 / aq-strength=1.00 / cbqpoffs=0 / crqpoffs=0 / rd=3 / psy-rd=0.30 / rdoq-level=0 / psy-rdoq=0.00 / signhide / deblock / sao / no-sao-non-deblock / b-pyramid / cutree / rc=2 / pass / bitrate=1068 / qcomp=0.60 / qpmin=0 / qpmax=51 / qpstep=4 / cplxblur=20.0 / qblur=0.5 / ipratio=1.40 / pbratio=1.30
Default                                  : Yes
Forced                                   : No

Audio #1
ID                                       : 2
Format                                   : AAC
Format/Info                              : Advanced Audio Codec
Format profile                           : HE-AAC / LC
Codec ID                                 : A_AAC
Duration                                 : 26 min 14 s
Bit rate                                 : 175 kb/s
Channel(s)                               : 6 channels
Channel positions                        : Front: L C R, Side: L R, LFE
Sampling rate                            : 48.0 kHz / 24.0 kHz
Frame rate                               : 23.438 FPS (1024 spf)
Compression mode                         : Lossy
Delay relative to video                  : 40 ms
Stream size                              : 32.9 MiB (11%)
Language                                 : English
Default                                  : Yes
Forced                                   : No

Audio #2
ID                                       : 3
Format                                   : AAC
Format/Info                              : Advanced Audio Codec
Format profile                           : HE-AAC / LC
Codec ID                                 : A_AAC
Duration                                 : 26 min 15 s
Bit rate                                 : 174 kb/s
Channel(s)                               : 6 channels
Channel positions                        : Front: L C R, Side: L R, LFE
Sampling rate                            : 48.0 kHz / 24.0 kHz
Frame rate                               : 23.438 FPS (1024 spf)
Compression mode                         : Lossy
Delay relative to video                  : 40 ms
Stream size                              : 32.8 MiB (11%)
Language                                 : Japanese
Default                                  : No
Forced                                   : No

Text #1
ID                                       : 4
Format                                   : ASS
Codec ID                                 : S_TEXT/ASS
Codec ID/Info                            : Advanced Sub Station Alpha
Duration                                 : 26 min 13 s
Bit rate                                 : 136 b/s
Count of elements                        : 441
Compression mode                         : Lossless
Stream size                              : 26.2 KiB (0%)
Language                                 : English
Default                                  : No
Forced                                   : No

Text #2
ID                                       : 5
Format                                   : ASS
Codec ID                                 : S_TEXT/ASS
Codec ID/Info                            : Advanced Sub Station Alpha
Duration                                 : 26 min 13 s
Bit rate                                 : 16 b/s
Count of elements                        : 41
Compression mode                         : Lossless
Stream size                              : 3.25 KiB (0%)
Language                                 : English
Default                                  : Yes
Forced                                   : No

Menu
00:00:00.066                             : en:Opening
00:01:30.757                             : en:Part 1
00:10:09.075                             : en:Part 2
00:24:16.421                             : en:Ending
00:25:46.511                             : en:Preview

Other Files in this Torrent
Neon Genesis Evangelion - 1x24 DC - The Beginning and the End, or Knockin' on Heaven's Door [1080p][x265][bk].mkv
beta
Anime DDL+NZB mirror
Current Time: 27/09/2022 16:31



About/FAQs

Discord