File Size66.02 MB (69,222,881 bytes)
DownloadAnonFiles | ClickNUpload | DownloadGG | KrakenFiles | MultiUp
  • BdUpload
  • DownAce
  • Fichier
  • FileCloud
  • Filerio
  • FilesCdn
  • IndiShare
  • Kbagi
  • Turbobit
  • UpToBox
  • Uppit
| ZippyShare
HashesCRC32: C362EA6B, MD5: A144E8F9D512C07DB15CD30C17F1D8E2, SHA1: 7B141E39CBEA01CF080536398D1303E2BDACCE3C, SHA256: CA84138928AC5A99B16E4BADCE6134B79B679AE52414B7787D0D9F2B24E40585, ED2K: B3CC2F2F76AC67C76DB6B5FB8882D13A
Screenshots
screenshotscreenshot
SubtitlesAll Attachments | Signs & Songs@EMBER [eng, ASS]
Additional Info
General
Unique ID                                : 29108626345613232417461726552833173397 (0x15E61E1542858D94E17632BF94E0A795)
Complete name                            : I'm Quitting Heroing S01-NCOP Broken Identity (Minori Suzuki).mkv
Format                                   : Matroska
Format version                           : Version 4
File size                                : 66.0 MiB
Duration                                 : 1 min 31 s
Overall bit rate                         : 6 084 kb/s
Movie name                               : I'm Quitting Heroing S01-NCOP Broken Identity (Minori Suzuki)
Encoded date                             : UTC 2023-01-23 17:04:24
Writing application                      : mkvmerge v73.0.0 ('25 or 6 to 4') 64-bit
Writing library                          : libebml v1.4.4 + libmatroska v1.7.1 / Lavf59.16.100
Attachments                              : Dimbo Regular.ttf / HighVoltage Rough.ttf / IMFellEnglish-Regular.ttf / Rosario-Bold.otf / Rosario-BoldItalic.otf / A-OTF Ryumin Pr6 EB-KL.otf / A-OTF Ryumin Pr6 H-KL.otf / Barmeno Extra Bold.ttf

Video
ID                                       : 1
Format                                   : HEVC
Format/Info                              : High Efficiency Video Coding
Format profile                           : Main 10@L5@Main
Codec ID                                 : V_MPEGH/ISO/HEVC
Duration                                 : 1 min 31 s
Bit rate                                 : 5 579 kb/s
Width                                    : 1 920 pixels
Height                                   : 1 080 pixels
Display aspect ratio                     : 16:9
Frame rate mode                          : Constant
Frame rate                               : 23.976 (24000/1001) FPS
Color space                              : YUV
Chroma subsampling                       : 4:2:0 (Type 0)
Bit depth                                : 10 bits
Bits/(Pixel*Frame)                       : 0.112
Stream size                              : 60.5 MiB (92%)
Title                                    : x265 CRF17 10bit | Encoded by Noiy
Writing library                          : x265 3.5+1-f0c1022b6:[Linux][GCC 12.2.1][64 bit] 10bit
Encoding settings                        : cpuid=1111039 / frame-threads=3 / wpp / no-pmode / no-pme / no-psnr / no-ssim / log-level=2 / input-csp=1 / input-res=1920x1080 / interlace=0 / total-frames=0 / level-idc=0 / high-tier=1 / uhd-bd=0 / ref=6 / no-allow-non-conformance / no-repeat-headers / annexb / no-aud / no-hrd / info / hash=0 / no-temporal-layers / open-gop / min-keyint=24 / keyint=240 / gop-lookahead=0 / bframes=8 / b-adapt=2 / b-pyramid / bframe-bias=0 / rc-lookahead=25 / lookahead-slices=4 / scenecut=40 / hist-scenecut=0 / radl=0 / no-splice / no-intra-refresh / ctu=64 / min-cu-size=8 / rect / no-amp / max-tu-size=32 / tu-inter-depth=1 / tu-intra-depth=1 / limit-tu=0 / rdoq-level=2 / dynamic-rd=0.00 / no-ssim-rd / signhide / no-tskip / nr-intra=0 / nr-inter=0 / no-constrained-intra / strong-intra-smoothing / max-merge=3 / limit-refs=3 / limit-modes / me=3 / subme=3 / merange=57 / temporal-mvp / no-frame-dup / no-hme / weightp / no-weightb / no-analyze-src-pics / deblock=0:0 / no-sao / no-sao-non-deblock / rd=4 / selective-sao=0 / no-early-skip / rskip / no-fast-intra / no-tskip-fast / no-cu-lossless / no-b-intra / no-splitrd-skip / rdpenalty=0 / psy-rd=1.20 / psy-rdoq=2.00 / no-rd-refine / no-lossless / cbqpoffs=0 / crqpoffs=0 / rc=crf / crf=17.0 / qcomp=0.60 / qpstep=4 / stats-write=0 / stats-read=0 / ipratio=1.40 / pbratio=1.30 / aq-mode=3 / aq-strength=1.00 / cutree / zone-count=0 / no-strict-cbr / qg-size=32 / no-rc-grain / qpmax=69 / qpmin=0 / no-const-vbv / sar=1 / overscan=0 / videoformat=5 / range=0 / colorprim=1 / transfer=1 / colormatrix=1 / chromaloc=1 / chromaloc-top=0 / chromaloc-bottom=0 / display-window=0 / cll=0,0 / min-luma=0 / max-luma=1023 / log2-max-poc-lsb=8 / vui-timing-info / vui-hrd-info / slices=1 / no-opt-qp-pps / no-opt-ref-list-length-pps / no-multi-pass-opt-rps / scenecut-bias=0.05 / hist-threshold=0.03 / no-opt-cu-delta-qp / no-aq-motion / no-hdr10 / no-hdr10-opt / no-dhdr10-opt / no-idr-recovery-sei / analysis-reuse-level=0 / analysis-save-reuse-level=0 / analysis-load-reuse-level=0 / scale-factor=0 / refine-intra=0 / refine-inter=0 / refine-mv=1 / refine-ctu-distortion=0 / no-limit-sao / ctu-info=0 / no-lowpass-dct / refine-analysis-type=0 / copy-pic=1 / max-ausize-factor=1.0 / no-dynamic-refine / no-single-sei / no-hevc-aq / no-svt / no-field / qp-adaptation-range=1.00 / scenecut-aware-qp=0conformance-window-offsets / right=0 / bottom=0 / decoder-max-rate=0 / no-vbv-live-multi-pass
Default                                  : Yes
Forced                                   : No
Color range                              : Limited
Color primaries                          : BT.709
Transfer characteristics                 : BT.709
Matrix coefficients                      : BT.709

Audio
ID                                       : 2
Format                                   : Opus
Codec ID                                 : A_OPUS
Duration                                 : 1 min 31 s
Bit rate                                 : 184 kb/s
Channel(s)                               : 2 channels
Channel layout                           : L R
Sampling rate                            : 48.0 kHz
Frame rate                               : 49.999 FPS (960 SPF)
Compression mode                         : Lossy
Delay relative to video                  : -7 ms
Stream size                              : 1.99 MiB (3%)
Title                                    : Opus 2.0 | VBR 192kbps
Language                                 : Japanese
Default                                  : Yes
Forced                                   : No

Text
ID                                       : 3
Format                                   : ASS
Codec ID                                 : S_TEXT/ASS
Codec ID/Info                            : Advanced Sub Station Alpha
Duration                                 : 1 min 18 s
Bit rate                                 : 182 kb/s
Count of elements                        : 16845
Compression mode                         : Lossless
Stream size                              : 1.71 MiB (3%)
Title                                    : Signs & Songs@EMBER
Language                                 : English
Default                                  : Yes
Forced                                   : No

Other Files in this Torrent
NC/I'm Quitting Heroing S01-NCOP Broken Identity (Minori Suzuki).mkv
beta
Anime DDL+NZB mirror
Current Time: 18/07/2024 04:12



About/FAQs

Discord