Movies/Made.in.Abyss.Movie.03-Dawn.of.the.Deep.Soul.1080p.Dual-Audio.BDRip.10.bits.DD.x265-EMBER.mkv


File Size3.187 GB (3,421,962,791 bytes)
DownloadDropAPK: Part1, Part2
Free: Part1, Part2, Part3, Part4
MultiUp: Part1
  • BdUpload
  • DownAce
  • Fichier
  • FileCloud
  • Filerio
  • FilesCdn
  • IndiShare
  • Kbagi
  • Turbobit
  • UpToBox
  • Uppit
, Part2
  • BdUpload
  • DownAce
  • Fichier
  • FileCloud
  • Filerio
  • FilesCdn
  • IndiShare
  • Kbagi
  • Turbobit
  • UpToBox
  • Uppit
, Part3
  • BdUpload
  • DownAce
  • Fichier
  • FileCloud
  • Filerio
  • FilesCdn
  • IndiShare
  • Kbagi
  • Turbobit
  • UpToBox
  • Uppit
, Part4
  • BdUpload
  • DownAce
  • Fichier
  • FileCloud
  • Filerio
  • FilesCdn
  • IndiShare
  • Kbagi
  • Turbobit
  • UpToBox
  • Uppit
, Part5
  • BdUpload
  • DownAce
  • Fichier
  • FileCloud
  • Filerio
  • FilesCdn
  • IndiShare
  • Kbagi
  • Turbobit
  • UpToBox
  • Uppit
, Part6
  • BdUpload
  • DownAce
  • Fichier
  • FileCloud
  • Filerio
  • FilesCdn
  • IndiShare
  • Kbagi
  • Turbobit
  • UpToBox
  • Uppit
, Part7
  • BdUpload
  • DownAce
  • Fichier
  • FileCloud
  • Filerio
  • FilesCdn
  • IndiShare
  • Kbagi
  • Turbobit
  • UpToBox
  • Uppit

SolidFiles: Part1, Part2, Part3, Part4, Part5, Part6, Part7
ZippyShare: Part1, Part2, Part3, Part4, Part5, Part6, Part7
HashesCRC32: 846E5D32, MD5: 88E845D583E7B6B12AE9E1C59AD6B913, SHA1: A75F98DC10068C9D5F9140A207A50115DD5602B4, SHA256: 065F9A00A36D1D368FD4E15082F2A347F542002803D22B7CDA4E33262DFFFC59, ED2K: E1109D307A418B0EC735CC6B11C189D3
Screenshots
screenshotscreenshotscreenshotscreenshotscreenshot
SubtitlesAll Attachments | Signs & Songs@USBD [eng, PGS], Dialogue@USBD [eng, PGS], Signs & Songs@EMBER [eng, ASS], Dialogue@MTBB_Asenshi [eng, ASS], Honorific@MTBB_Asenshi [eng, ASS]
Additional Info
General
Unique ID                                : 332751409578509585776695129352074203458 (0xFA559722C75AF5A5B9B8F686C7149142)
Complete name                            : Made.in.Abyss.Movie.03-Dawn.of.the.Deep.Soul.1080p.Dual-Audio.BDRip.10.bits.DD.x265-EMBER.mkv
Format                                   : Matroska
Format version                           : Version 4
File size                                : 3.19 GiB
Duration                                 : 1 h 45 min
Overall bit rate                         : 4 319 kb/s
Movie name                               : Made.in.Abyss-Dawn.of.the.Deep.Soul.1080p.Dual-Audio.BDRip.10.bits.DD.x265-EMBER
Encoded date                             : UTC 2021-06-09 02:27:36
Writing application                      : mkvmerge v57.0.0 ('Till The End') 64-bit
Writing library                          : libebml v1.4.2 + libmatroska v1.6.4
Cover                                    : Yes
Attachments                              : cover.jpg / CronosPro-Semibold.ttf / CronosPro-SemiboldIt.ttf / DFGYOSHO-LT-WING-RKSJ-H.TTF / Quadraat-Bold.otf

Video
ID                                       : 1
Format                                   : HEVC
Format/Info                              : High Efficiency Video Coding
Format profile                           : Main 10@L5@High
Codec ID                                 : V_MPEGH/ISO/HEVC
Duration                                 : 1 h 44 min
Bit rate                                 : 3 621 kb/s
Width                                    : 1 920 pixels
Height                                   : 1 080 pixels
Display aspect ratio                     : 16:9
Frame rate mode                          : Constant
Frame rate                               : 23.976 (24000/1001) FPS
Color space                              : YUV
Chroma subsampling                       : 4:2:0
Bit depth                                : 10 bits
Bits/(Pixel*Frame)                       : 0.073
Stream size                              : 2.65 GiB (83%)
Title                                    : Presented By EMBER
Default                                  : Yes
Forced                                   : No

Audio #1
ID                                       : 2
Format                                   : AC-3
Format/Info                              : Audio Coding 3
Commercial name                          : Dolby Digital
Codec ID                                 : A_AC3
Duration                                 : 1 h 44 min
Bit rate mode                            : Constant
Bit rate                                 : 448 kb/s
Channel(s)                               : 6 channels
Channel layout                           : L R C LFE Ls Rs
Sampling rate                            : 48.0 kHz
Frame rate                               : 31.250 FPS (1536 SPF)
Bit depth                                : 16 bits
Compression mode                         : Lossy
Stream size                              : 336 MiB (10%)
Language                                 : English
Service kind                             : Complete Main
Default                                  : Yes
Forced                                   : No

Audio #2
ID                                       : 3
Format                                   : AC-3
Format/Info                              : Audio Coding 3
Commercial name                          : Dolby Digital
Codec ID                                 : A_AC3
Duration                                 : 1 h 44 min
Bit rate mode                            : Constant
Bit rate                                 : 224 kb/s
Channel(s)                               : 2 channels
Channel layout                           : L R
Sampling rate                            : 48.0 kHz
Frame rate                               : 31.250 FPS (1536 SPF)
Bit depth                                : 16 bits
Compression mode                         : Lossy
Stream size                              : 168 MiB (5%)
Language                                 : Japanese
Service kind                             : Complete Main
Default                                  : No
Forced                                   : No

Text #1
ID                                       : 4
Format                                   : PGS
Codec ID                                 : S_HDMV/PGS
Codec ID/Info                            : Picture based subtitle format used on BDs/HD-DVDs
Duration                                 : 6 min 55 s
Bit rate                                 : 2 636 b/s
Count of elements                        : 14
Stream size                              : 134 KiB (0%)
Title                                    : Signs & Songs@USBD
Language                                 : English
Default                                  : No
Forced                                   : No

Text #2
ID                                       : 5
Format                                   : PGS
Codec ID                                 : S_HDMV/PGS
Codec ID/Info                            : Picture based subtitle format used on BDs/HD-DVDs
Duration                                 : 1 h 39 min
Bit rate                                 : 50.2 kb/s
Count of elements                        : 2503
Stream size                              : 35.6 MiB (1%)
Title                                    : Dialogue@USBD
Language                                 : English
Default                                  : No
Forced                                   : No

Text #3
ID                                       : 6
Format                                   : ASS
Codec ID                                 : S_TEXT/ASS
Codec ID/Info                            : Advanced Sub Station Alpha
Duration                                 : 6 min 55 s
Bit rate                                 : 45 b/s
Count of elements                        : 19
Compression mode                         : Lossless
Stream size                              : 2.31 KiB (0%)
Title                                    : Signs & Songs@EMBER
Language                                 : English
Default                                  : Yes
Forced                                   : No

Text #4
ID                                       : 7
Format                                   : ASS
Codec ID                                 : S_TEXT/ASS
Codec ID/Info                            : Advanced Sub Station Alpha
Duration                                 : 1 h 44 min
Bit rate                                 : 123 b/s
Count of elements                        : 1439
Compression mode                         : Lossless
Stream size                              : 94.4 KiB (0%)
Title                                    : Dialogue@MTBB_Asenshi
Language                                 : English
Default                                  : No
Forced                                   : No

Text #5
ID                                       : 8
Format                                   : ASS
Codec ID                                 : S_TEXT/ASS
Codec ID/Info                            : Advanced Sub Station Alpha
Duration                                 : 1 h 44 min
Bit rate                                 : 123 b/s
Count of elements                        : 1439
Compression mode                         : Lossless
Stream size                              : 94.4 KiB (0%)
Title                                    : Honorific@MTBB_Asenshi
Language                                 : English
Default                                  : No
Forced                                   : No

Menu
00:00:00.000                             : :Chapter 01
00:00:21.021                             : :Chapter 02
00:09:39.412                             : :Chapter 03
00:11:38.489                             : :Chapter 04
00:18:38.992                             : :Chapter 05
00:23:44.172                             : :Chapter 06
00:28:38.091                             : :Chapter 07
00:36:55.379                             : :Chapter 08
00:42:18.994                             : :Chapter 09
00:50:02.040                             : :Chapter 10
00:54:01.696                             : :Chapter 11
00:57:35.493                             : :Chapter 12
01:01:04.994                             : :Chapter 13
01:09:08.477                             : :Chapter 14
01:15:38.408                             : :Chapter 15
01:20:20.023                             : :Chapter 16
01:22:20.143                             : :Chapter 17
01:29:34.619                             : :Chapter 18
01:38:02.126                             : :Chapter 19
01:40:25.936                             : :Chapter 20

Other Files in this Torrent
Movies/Made.in.Abyss.Movie.03-Dawn.of.the.Deep.Soul.1080p.Dual-Audio.BDRip.10.bits.DD.x265-EMBER.mkv
beta
Anime DDL+NZB mirror
Current Time: 14/06/2024 05:58



About/FAQs

Discord