File Size3.952 GB (4,243,318,239 bytes)
DownloadDropAPK: Part1, Part2
Free: Part1, Part2, Part3, Part4, Part5
MultiUp: Part1
  • BdUpload
  • DownAce
  • Fichier
  • FileCloud
  • Filerio
  • FilesCdn
  • IndiShare
  • Kbagi
  • Turbobit
  • UpToBox
  • Uppit
, Part2
  • BdUpload
  • DownAce
  • Fichier
  • FileCloud
  • Filerio
  • FilesCdn
  • IndiShare
  • Kbagi
  • Turbobit
  • UpToBox
  • Uppit
, Part3
  • BdUpload
  • DownAce
  • Fichier
  • FileCloud
  • Filerio
  • FilesCdn
  • IndiShare
  • Kbagi
  • Turbobit
  • UpToBox
  • Uppit
, Part4
  • BdUpload
  • DownAce
  • Fichier
  • FileCloud
  • Filerio
  • FilesCdn
  • IndiShare
  • Kbagi
  • Turbobit
  • UpToBox
  • Uppit
, Part5
  • BdUpload
  • DownAce
  • Fichier
  • FileCloud
  • Filerio
  • FilesCdn
  • IndiShare
  • Kbagi
  • Turbobit
  • UpToBox
  • Uppit
, Part6
  • BdUpload
  • DownAce
  • Fichier
  • FileCloud
  • Filerio
  • FilesCdn
  • IndiShare
  • Kbagi
  • Turbobit
  • UpToBox
  • Uppit
, Part7
  • BdUpload
  • DownAce
  • Fichier
  • FileCloud
  • Filerio
  • FilesCdn
  • IndiShare
  • Kbagi
  • Turbobit
  • UpToBox
  • Uppit
, Part8
  • BdUpload
  • DownAce
  • Fichier
  • FileCloud
  • Filerio
  • FilesCdn
  • IndiShare
  • Kbagi
  • Turbobit
  • UpToBox
  • Uppit
, Part9
  • BdUpload
  • DownAce
  • Fichier
  • FileCloud
  • Filerio
  • FilesCdn
  • IndiShare
  • Kbagi
  • Turbobit
  • UpToBox
  • Uppit

SolidFiles: Part1, Part2, Part3, Part4, Part5, Part6, Part7, Part8, Part9
ZippyShare: Part1, Part2, Part3, Part4, Part5, Part6, Part7, Part8, Part9
HashesCRC32: E268FCE4, MD5: DA65364EA95608142198688FC441762E, SHA1: B82CE6496733B705343DC4C8B6521223C512D738, SHA256: 8F18A8801E36ABD4E6FB5458A4551E63152959FFDD7B4D049F4A95650EC141DE, ED2K: 29A0AA8010899FDE40A1199F4DDBEFE6
Screenshots
screenshotscreenshotscreenshotscreenshotscreenshot
SubtitlesAll Attachments | Signs/Songs | Asenshi-MTBB [eng, ASS], Full Subtitles | Asenshi-MTBB [eng, ASS], Full Subtitles (Honorifics) | Asenshi-MTBB [eng, ASS]
Additional Info
General
Unique ID                                : 242241592863413455242500721261849628761 (0xB63E08A3A7937AAB353DA3C56FF05059)
Complete name                            : Movie 03 - Dawn of the Deep Soul.mkv
Format                                   : Matroska
Format version                           : Version 4
File size                                : 3.95 GiB
Duration                                 : 1 h 44 min
Overall bit rate                         : 5 393 kb/s
Encoded date                             : UTC 2021-05-10 03:43:33
Writing application                      : mkvmerge v56.1.0 ('My Friend') 64-bit
Writing library                          : libebml v1.4.2 + libmatroska v1.6.4
Attachments                              : CronosPro-SemiboldIt.ttf / DFGYOSHO-LT-WING-RKSJ-H.TTF / Quadraat-Bold.otf / CronosPro-Semibold.ttf

Video
ID                                       : 1
Format                                   : HEVC
Format/Info                              : High Efficiency Video Coding
Format profile                           : Main 10@L4@Main
Codec ID                                 : V_MPEGH/ISO/HEVC
Duration                                 : 1 h 44 min
Bit rate                                 : 4 480 kb/s
Width                                    : 1 920 pixels
Height                                   : 1 080 pixels
Display aspect ratio                     : 16:9
Frame rate mode                          : Constant
Frame rate                               : 23.976 (24000/1001) FPS
Color space                              : YUV
Chroma subsampling                       : 4:2:0
Bit depth                                : 10 bits
Bits/(Pixel*Frame)                       : 0.090
Stream size                              : 3.28 GiB (83%)
Title                                    : HEVC | 10-bit | CRF 16.3 | JPN BD | [sorrow]
Writing library                          : x265 3.4+6-g73f96ff39:[Windows][GCC 11.0.0][64 bit] 10bit
Encoding settings                        : cpuid=1111039 / frame-threads=3 / numa-pools=12 / wpp / no-pmode / no-pme / no-psnr / no-ssim / log-level=2 / input-csp=1 / input-res=1920x1080 / interlace=0 / total-frames=150894 / level-idc=0 / high-tier=1 / uhd-bd=0 / ref=4 / no-allow-non-conformance / no-repeat-headers / annexb / no-aud / no-hrd / info / hash=0 / no-temporal-layers / open-gop / min-keyint=23 / keyint=240 / gop-lookahead=0 / bframes=8 / b-adapt=2 / b-pyramid / bframe-bias=0 / rc-lookahead=48 / lookahead-slices=4 / scenecut=40 / hist-scenecut=0 / radl=0 / no-splice / no-intra-refresh / ctu=64 / min-cu-size=8 / no-rect / no-amp / max-tu-size=32 / tu-inter-depth=1 / tu-intra-depth=1 / limit-tu=0 / rdoq-level=2 / dynamic-rd=0.00 / no-ssim-rd / signhide / no-tskip / nr-intra=0 / nr-inter=0 / no-constrained-intra / strong-intra-smoothing / max-merge=3 / limit-refs=3 / limit-modes / me=3 / subme=4 / merange=57 / temporal-mvp / no-frame-dup / no-hme / weightp / weightb / no-analyze-src-pics / deblock=0:-1 / no-sao / no-sao-non-deblock / rd=4 / selective-sao=0 / no-early-skip / rskip / no-fast-intra / no-tskip-fast / no-cu-lossless / no-b-intra / no-splitrd-skip / rdpenalty=0 / psy-rd=2.08 / psy-rdoq=1.96 / no-rd-refine / no-lossless / cbqpoffs=-1 / crqpoffs=-1 / rc=crf / crf=16.3 / qcomp=0.72 / qpstep=4 / stats-write=0 / stats-read=0 / ipratio=1.40 / pbratio=1.30 / aq-mode=3 / aq-strength=0.88 / cutree / zone-count=2 / zones: / start-frame=0 / end-frame=210 / bitrate-factor=0.500000 / zones: / start-frame=144285 / end-frame=150894 / bitrate-factor=0.500000 / no-strict-cbr / qg-size=32 / no-rc-grain / qpmax=69 / qpmin=0 / no-const-vbv / sar=0 / overscan=0 / videoformat=5 / range=0 / colorprim=2 / transfer=2 / colormatrix=2 / chromaloc=0 / display-window=0 / cll=0,0 / min-luma=0 / max-luma=1023 / log2-max-poc-lsb=8 / vui-timing-info / vui-hrd-info / slices=1 / no-opt-qp-pps / no-opt-ref-list-length-pps / no-multi-pass-opt-rps / scenecut-bias=0.05 / hist-threshold=0.01 / no-opt-cu-delta-qp / no-aq-motion / no-hdr10 / no-hdr10-opt / no-dhdr10-opt / no-idr-recovery-sei / analysis-reuse-level=0 / analysis-save-reuse-level=0 / analysis-load-reuse-level=0 / scale-factor=0 / refine-intra=0 / refine-inter=0 / refine-mv=1 / refine-ctu-distortion=0 / no-limit-sao / ctu-info=0 / no-lowpass-dct / refine-analysis-type=0 / copy-pic=1 / max-ausize-factor=1.0 / no-dynamic-refine / no-single-sei / no-hevc-aq / no-svt / no-field / qp-adaptation-range=3.00 / no-scenecut-aware-qpconformance-window-offsets / right=0 / bottom=0 / decoder-max-rate=0
Default                                  : Yes
Forced                                   : No

Audio #1
ID                                       : 2
Format                                   : Opus
Codec ID                                 : A_OPUS
Duration                                 : 1 h 44 min
Bit rate                                 : 445 kb/s
Channel(s)                               : 6 channels
Channel layout                           : L R C Ls Rs Cb LFE
Sampling rate                            : 48.0 kHz
Frame rate                               : 50.000 FPS (960 SPF)
Compression mode                         : Lossy
Delay relative to video                  : 10 ms
Stream size                              : 334 MiB (8%)
Title                                    : English 5.1 | Opus 512
Language                                 : English
Default                                  : Yes
Forced                                   : No

Audio #2
ID                                       : 3
Format                                   : Opus
Codec ID                                 : A_OPUS
Duration                                 : 1 h 44 min
Bit rate                                 : 458 kb/s
Channel(s)                               : 6 channels
Channel layout                           : L R C Ls Rs Cb LFE
Sampling rate                            : 48.0 kHz
Frame rate                               : 50.000 FPS (960 SPF)
Compression mode                         : Lossy
Delay relative to video                  : 10 ms
Stream size                              : 344 MiB (8%)
Title                                    : Japanese 5.1 | Opus 512
Language                                 : Japanese
Default                                  : No
Forced                                   : No

Text #1
ID                                       : 4
Format                                   : ASS
Codec ID                                 : S_TEXT/ASS
Codec ID/Info                            : Advanced Sub Station Alpha
Duration                                 : 6 min 55 s
Bit rate                                 : 45 b/s
Count of elements                        : 19
Compression mode                         : Lossless
Stream size                              : 2.31 KiB (0%)
Title                                    : Signs/Songs | Asenshi-MTBB
Language                                 : English
Default                                  : Yes
Forced                                   : No

Text #2
ID                                       : 5
Format                                   : ASS
Codec ID                                 : S_TEXT/ASS
Codec ID/Info                            : Advanced Sub Station Alpha
Duration                                 : 1 h 39 min
Bit rate                                 : 129 b/s
Count of elements                        : 1438
Compression mode                         : Lossless
Stream size                              : 94.4 KiB (0%)
Title                                    : Full Subtitles | Asenshi-MTBB
Language                                 : English
Default                                  : No
Forced                                   : No

Text #3
ID                                       : 6
Format                                   : ASS
Codec ID                                 : S_TEXT/ASS
Codec ID/Info                            : Advanced Sub Station Alpha
Duration                                 : 1 h 39 min
Bit rate                                 : 129 b/s
Count of elements                        : 1438
Compression mode                         : Lossless
Stream size                              : 94.4 KiB (0%)
Title                                    : Full Subtitles (Honorifics) | Asenshi-MTBB
Language                                 : English
Default                                  : No
Forced                                   : No

Menu
00:00:00.000                             : :Production Logos
00:00:21.021                             : :Part A
00:09:39.412                             : :Part B
00:11:38.489                             : :Part C
00:18:38.993                             : :Part D
00:23:44.173                             : :Part E
00:28:38.091                             : :Part F
00:36:55.380                             : :Part G
00:42:18.995                             : :Part H
00:50:02.041                             : :Part I
00:54:01.697                             : :Part J
00:57:35.494                             : :Part K
01:01:04.995                             : :Part L
01:09:08.478                             : :Part M
01:15:38.409                             : :Part N
01:20:20.024                             : :Part O
01:22:20.144                             : :Part P
01:29:34.619                             : :Part Q
01:38:02.126                             : :Part R
01:40:25.937                             : :Ending

Other Files in this Torrent
Movie 03 - Dawn of the Deep Soul.mkv
beta
Anime DDL+NZB mirror
Current Time: 13/07/2024 19:34



About/FAQs

Discord