Made.in.Abyss.Episode.10.[BD.1080p.x265.HEVC.10bit].mkv


File Size199.5 MB (209,203,561 bytes)
DownloadClickNUpload | Jheberg | MultiUp
  • BdUpload
  • DownAce
  • Fichier
  • FileCloud
  • Filerio
  • FilesCdn
  • IndiShare
  • Kbagi
  • Turbobit
  • UpToBox
  • Uppit
| Sendspace | SolidFiles | ZippyShare
HashesCRC32: 65BA3AB3, MD5: 7716A7B16BD6F4458285C2E9A284E0DF, SHA1: 016F01FCF5A944DFE60BE3B144A69B6F89CBE8CB, SHA256: 769EEF4E7E15A749C4A0B908EFFAD903C8D63A975F0E6E542FF2F72A3F96B7F6, ED2K: AD196EB4D98306C1561FF1CE3D86E5A2
Screenshots
screenshotscreenshotscreenshotscreenshotscreenshot
SubtitlesAll Attachments | Español [spa, ASS], Portuguese [por, ASS], English [eng, ASS]
Additional Info
General
Unique ID                                : 188135288076221280212741757128026132591 (0x8D8989DA7E410AC9AD711226886C906F)
Complete name                            : Made.in.Abyss.Episode.10.[BD.1080p.x265.HEVC.10bit].mkv
Format                                   : Matroska
Format version                           : Version 4
File size                                : 200 MiB
Duration                                 : 23 min 42 s
Overall bit rate                         : 1 177 kb/s
Movie name                               : [bonkai77].Made.in.Abyss.Episode.10.[BD.1080p.x265.HEVC.10bit]
Encoded date                             : UTC 2020-01-21 16:58:09
Writing application                      : mkvmerge v41.0.0 ('Smarra') 64-bit
Writing library                          : libebml v1.3.9 + libmatroska v1.5.2
Attachments                              : LTFinnegan MediumItalic.ttf / maagkramp.ttf / playtime.ttf / Qlassik_TB.otf / Remains.ttf / Barmeno-Roman.ttf / LT.TTF
Writing frontend                         : StaxRip v1.6.1.2

Video
ID                                       : 1
Format                                   : HEVC
Format/Info                              : High Efficiency Video Coding
Format profile                           : Main 10@L4@Main
Codec ID                                 : V_MPEGH/ISO/HEVC
Duration                                 : 23 min 42 s
Bit rate                                 : 1 060 kb/s
Width                                    : 1 920 pixels
Height                                   : 1 080 pixels
Display aspect ratio                     : 16:9
Frame rate mode                          : Constant
Frame rate                               : 23.976 (24000/1001) FPS
Color space                              : YUV
Chroma subsampling                       : 4:2:0
Bit depth                                : 10 bits
Bits/(Pixel*Frame)                       : 0.021
Stream size                              : 180 MiB (90%)
Writing library                          : x265 2.6+22-ff02513b92c0:[Windows][GCC 6.3.0][64 bit] 10bit
Encoding settings                        : cpuid=1050111 / frame-threads=3 / numa-pools=8 / wpp / no-pmode / no-pme / no-psnr / no-ssim / log-level=2 / input-csp=1 / input-res=1920x1080 / interlace=0 / total-frames=34096 / level-idc=0 / high-tier=1 / uhd-bd=0 / ref=4 / no-allow-non-conformance / no-repeat-headers / annexb / no-aud / no-hrd / info / hash=0 / no-temporal-layers / open-gop / min-keyint=23 / keyint=250 / gop-lookahead=0 / bframes=8 / b-adapt=2 / b-pyramid / bframe-bias=0 / rc-lookahead=30 / lookahead-slices=4 / scenecut=40 / radl=0 / no-intra-refresh / ctu=32 / min-cu-size=8 / rect / no-amp / max-tu-size=16 / tu-inter-depth=2 / tu-intra-depth=2 / limit-tu=4 / rdoq-level=2 / dynamic-rd=0.00 / no-ssim-rd / signhide / no-tskip / nr-intra=0 / nr-inter=0 / no-constrained-intra / no-strong-intra-smoothing / max-merge=3 / limit-refs=2 / limit-modes / me=3 / subme=3 / merange=57 / temporal-mvp / weightp / weightb / no-analyze-src-pics / deblock=0:0 / no-sao / no-sao-non-deblock / rd=6 / no-early-skip / rskip / no-fast-intra / no-tskip-fast / no-cu-lossless / b-intra / no-splitrd-skip / rdpenalty=0 / psy-rd=2.00 / psy-rdoq=1.00 / no-rd-refine / no-lossless / cbqpoffs=0 / crqpoffs=0 / rc=crf / crf=23.0 / qcomp=0.60 / qpstep=4 / stats-write=0 / stats-read=0 / ipratio=1.40 / pbratio=1.30 / aq-mode=2 / aq-strength=1.00 / cutree / zone-count=0 / no-strict-cbr / qg-size=32 / no-rc-grain / qpmax=69 / qpmin=0 / no-const-vbv / sar=0 / overscan=0 / videoformat=5 / range=0 / colorprim=2 / transfer=2 / colormatrix=2 / chromaloc=0 / display-window=0 / max-cll=0,0 / min-luma=0 / max-luma=1023 / log2-max-poc-lsb=8 / vui-timing-info / vui-hrd-info / slices=1 / no-opt-qp-pps / no-opt-ref-list-length-pps / no-multi-pass-opt-rps / scenecut-bias=0.05 / no-opt-cu-delta-qp / no-aq-motion / no-hdr / no-hdr-opt / no-dhdr10-opt / analysis-save=(null) / analysis-load=(null) / analysis-reuse-level=5 / scale-factor=0 / refine-intra=0 / refine-inter=0 / refine-mv=0 / no-limit-sao / ctu-info=0 / no-lowpass-dct / refine-mv-type=0 / copy-pic=1
Default                                  : Yes
Forced                                   : Yes

Audio
ID                                       : 2
Format                                   : AAC LC
Format/Info                              : Advanced Audio Codec Low Complexity
Codec ID                                 : A_AAC-2
Duration                                 : 23 min 42 s
Bit rate                                 : 112 kb/s
Channel(s)                               : 2 channels
Channel layout                           : L R
Sampling rate                            : 48.0 kHz
Frame rate                               : 46.875 FPS (1024 SPF)
Compression mode                         : Lossy
Delay relative to video                  : 21 ms
Stream size                              : 19.0 MiB (10%)
Language                                 : Japanese
Default                                  : Yes
Forced                                   : Yes

Text #1
ID                                       : 3
Format                                   : ASS
Codec ID                                 : S_TEXT/ASS
Codec ID/Info                            : Advanced Sub Station Alpha
Duration                                 : 23 min 38 s
Bit rate                                 : 84 b/s
Count of elements                        : 321
Compression mode                         : Lossless
Stream size                              : 14.6 KiB (0%)
Title                                    : Español
Language                                 : Spanish
Default                                  : Yes
Forced                                   : Yes

Text #2
ID                                       : 4
Format                                   : ASS
Codec ID                                 : S_TEXT/ASS
Codec ID/Info                            : Advanced Sub Station Alpha
Duration                                 : 23 min 38 s
Bit rate                                 : 85 b/s
Count of elements                        : 324
Compression mode                         : Lossless
Stream size                              : 14.7 KiB (0%)
Title                                    : Portuguese
Language                                 : Portuguese
Default                                  : No
Forced                                   : No

Text #3
ID                                       : 5
Format                                   : ASS
Codec ID                                 : S_TEXT/ASS
Codec ID/Info                            : Advanced Sub Station Alpha
Duration                                 : 23 min 38 s
Bit rate                                 : 414 b/s
Count of elements                        : 359
Compression mode                         : Lossless
Stream size                              : 71.8 KiB (0%)
Title                                    : English
Language                                 : English
Default                                  : No
Forced                                   : No

Menu
00:00:00.033                             : en:Intro
00:02:42.010                             : en:"Deep in Abyss" by Riko (CV:Miyu Tomita) and Regu (CV: Mariya Ise) (Opening)
00:04:11.980                             : en:Part A
00:10:47.040                             : en:Part B
00:22:00.000                             : en:"Tabi no Hidarite, Saihate no Migite (旅の左手、最果ての右手)" by Riko (Miyu Tomita) and Nanachi (Shiori Izawa) (Ending)
00:23:30.010                             : en:Preview

Other Files in this Torrent
Made.in.Abyss.Episode.10.[BD.1080p.x265.HEVC.10bit].mkv
beta
Anime DDL+NZB mirror
Current Time: 21/06/2024 08:30



About/FAQs

Discord