File Size277.9 MB (291,433,111 bytes)
DownloadClickNUpload | Go4Up | Jheberg | MultiUp | OpenLoad | Sendspace | SolidFiles | ZippyShare
HashesCRC32: E62E2A56, MD5: FA6A6734282AC1E1F7E33E8671F4BBC5, SHA1: B5231E920B6FEF5AB53D382E3E0BF94C6D45413C, SHA256: A256606940AA38A1943DD16CEADD8319407538AD661C9F31A4596A32F4B8A51A, ED2K: 84D7AC15364F3297B19E6480B30FB675
Screenshots
screenshotscreenshotscreenshotscreenshotscreenshot
SubtitlesAll Attachments | Signs & Songs [eng, ASS], Full [eng, ASS]
Additional Info
General
Unique ID                                : 93723329990608558009313259275257914264 (0x468274EEFCCD22F3CB216544A39C2398)
Complete name                            : Made in Abyss 1x01.mkv
Format                                   : Matroska
Format version                           : Version 4 / Version 2
File size                                : 278 MiB
Duration                                 : 24 min 43 s
Overall bit rate                         : 1 572 kb/s
Encoded date                             : UTC 2018-10-24 18:46:27
Writing application                      : mkvmerge v20.0.0 ('I Am The Sun') 64-bit
Writing library                          : libebml v1.3.5 + libmatroska v1.4.8
Attachments                              : LT.ttf / LTFinnegan MediumItalic.ttf / maagkramp.ttf / playtime.ttf

Video
ID                                       : 1
Format                                   : AVC
Format/Info                              : Advanced Video Codec
Format profile                           : Main@L5
Format settings, CABAC                   : Yes
Format settings, ReFrames                : 8 frames
Format settings, GOP                     : M=4, N=50
Codec ID                                 : V_MPEG4/ISO/AVC
Duration                                 : 24 min 43 s
Bit rate                                 : 1 260 kb/s
Width                                    : 1 920 pixels
Height                                   : 1 080 pixels
Display aspect ratio                     : 16:9
Frame rate mode                          : Constant
Frame rate                               : 24.000 FPS
Color space                              : YUV
Chroma subsampling                       : 4:2:0
Bit depth                                : 8 bits
Scan type                                : Progressive
Bits/(Pixel*Frame)                       : 0.025
Stream size                              : 223 MiB (80%)
Default                                  : Yes
Forced                                   : No

Audio #1
ID                                       : 2
Format                                   : AAC
Format/Info                              : Advanced Audio Codec
Format profile                           : LC
Codec ID                                 : A_AAC
Duration                                 : 23 min 43 s
Bit rate                                 : 192 kb/s
Channel(s)                               : 2 channels
Channel positions                        : Front: L R
Sampling rate                            : 44.1 kHz
Frame rate                               : 43.066 FPS (1024 spf)
Compression mode                         : Lossy
Delay relative to video                  : -46 ms
Stream size                              : 32.6 MiB (12%)
Language                                 : English
Default                                  : Yes
Forced                                   : No

Audio #2
ID                                       : 3
Format                                   : AAC
Format/Info                              : Advanced Audio Codec
Format profile                           : LC
Codec ID                                 : A_AAC
Duration                                 : 23 min 41 s
Bit rate                                 : 128 kb/s
Channel(s)                               : 2 channels
Channel positions                        : Front: L R
Sampling rate                            : 48.0 kHz
Frame rate                               : 46.875 FPS (1024 spf)
Compression mode                         : Lossy
Delay relative to video                  : -31 ms
Stream size                              : 21.8 MiB (8%)
Language                                 : Japanese
Default                                  : No
Forced                                   : No

Text #1
ID                                       : 4
Format                                   : ASS
Codec ID                                 : S_TEXT/ASS
Codec ID/Info                            : Advanced Sub Station Alpha
Duration                                 : 15 min 21 s
Bit rate                                 : 15 b/s
Count of elements                        : 22
Compression mode                         : Lossless
Stream size                              : 1.71 KiB (0%)
Title                                    : Signs & Songs
Language                                 : English
Default                                  : Yes
Forced                                   : No

Text #2
ID                                       : 5
Format                                   : ASS
Codec ID                                 : S_TEXT/ASS
Codec ID/Info                            : Advanced Sub Station Alpha
Duration                                 : 23 min 36 s
Bit rate                                 : 108 b/s
Count of elements                        : 351
Compression mode                         : Lossless
Stream size                              : 18.8 KiB (0%)
Title                                    : Full
Language                                 : English
Default                                  : No
Forced                                   : Yes

Menu
00:00:00.000                             : en:Chapter 01
00:06:37.731                             : en:Chapter 02
00:08:18.748                             : en:Chapter 03
00:13:29.767                             : en:Chapter 04
00:22:00.653                             : en:Chapter 05
00:23:30.743                             : en:Chapter 06
00:23:42.421                             : en:Chapter 07

Other Files in this Torrent
Made in Abyss 1x01.mkv
beta
Anime DDL+NZB mirror
Current Time: 18/06/2024 16:20



About/FAQs

Discord