[LostYears] Isekai Quartet - 12 (WEB 1080p x264 10-bit AAC) [20898FD0].mkv


File Size403.5 MB (423,068,148 bytes)
DownloadClickNUpload | Jheberg | MultiUp
  • BdUpload
  • DownAce
  • Fichier
  • FileCloud
  • Filerio
  • FilesCdn
  • IndiShare
  • Kbagi
  • Turbobit
  • UpToBox
  • Uppit
| OpenLoad | SolidFiles | ZippyShare
Sendspace: Part1, Part2
HashesCRC32: 20898FD0, MD5: 71A678C098B8F24FE985F89C50381AD5, SHA1: 838AFC81DD85B8CBF58984D7D150E38427497C1D, SHA256: F2CBA12F84E2E871FCDB2EF88EBBD90DB7C471CEA81362B0243DCA0649A1285B, ED2K: D965217DD595126AB3B88A8D16966E6B
Screenshots
screenshotscreenshotscreenshotscreenshotscreenshot
SubtitlesAll Attachments | Signs & Songs [zxx, ASS], No Honorifics [eng, ASS], Honorifics [enm, ASS]
Additional Info
General
Unique ID                                : 123492307440326795679650916941038782183 (0x5CE7C0D6F69C5602B03AD49A340286E7)
Complete name                            : [LostYears] Isekai Quartet - 12 (WEB 1080p x264 10-bit AAC) [20898FD0].mkv
Format                                   : Matroska
Format version                           : Version 4
File size                                : 403 MiB
Duration                                 : 11 min 51 s
Overall bit rate                         : 4 757 kb/s
Movie name                               : [LostYears] Isekai Quartet - 12
Encoded date                             : UTC 2019-07-13 23:40:57
Writing application                      : mkvmerge v25.0.0 ('Prog Noir') 64-bit
Writing library                          : libebml v1.3.6 + libmatroska v1.4.9
Attachments                              : ITCKRIST.TTF / ERASBD.TTF / ColorsOfAutumn.ttf / bahnschrift.ttf / ARLRDBD.TTF / BRLNSR.TTF / arial.ttf / MAGRA-BOLD.TTF / Gloss_And_Bloom.ttf / FantasticBoogaloo.ttf

Video
ID                                       : 1
Format                                   : AVC
Format/Info                              : Advanced Video Codec
Format profile                           : High 10@L4
Format settings                          : CABAC / 4 Ref Frames
Format settings, CABAC                   : Yes
Format settings, ReFrames                : 4 frames
Codec ID                                 : V_MPEG4/ISO/AVC
Duration                                 : 11 min 50 s
Bit rate                                 : 4 353 kb/s
Width                                    : 1 920 pixels
Height                                   : 1 080 pixels
Display aspect ratio                     : 16:9
Frame rate mode                          : Constant
Frame rate                               : 23.976 (24000/1001) FPS
Color space                              : YUV
Chroma subsampling                       : 4:2:0
Bit depth                                : 10 bits
Scan type                                : Progressive
Bits/(Pixel*Frame)                       : 0.088
Stream size                              : 368 MiB (91%)
Title                                    : WEB 1080p x264 10-bit [LostYears]
Writing library                          : x264 core 148 r2721kMod 72d53ab
Encoding settings                        : cabac=1 / ref=4 / deblock=1:-1:-1 / analyse=0x3:0x133 / me=umh / subme=10 / psy=1 / fade_compensate=0.00 / psy_rd=0.70:0.00 / mixed_ref=1 / me_range=24 / chroma_me=1 / trellis=2 / 8x8dct=1 / cqm=0 / deadzone=21,11 / fast_pskip=0 / chroma_qp_offset=-2 / threads=12 / lookahead_threads=2 / sliced_threads=0 / nr=0 / decimate=0 / interlaced=0 / bluray_compat=0 / constrained_intra=0 / fgo=0 / bframes=9 / b_pyramid=2 / b_adapt=2 / b_bias=0 / direct=3 / weightb=1 / open_gop=0 / weightp=2 / keyint=240 / keyint_min=23 / scenecut=40 / intra_refresh=0 / rc_lookahead=60 / rc=crf / mbtree=1 / crf=15.6000 / qcomp=0.80 / qpmin=0 / qpmax=79 / qpstep=4 / ip_ratio=1.10 / aq=3:0.80
Language                                 : Japanese
Default                                  : Yes
Forced                                   : No
Color range                              : Limited
Matrix coefficients                      : BT.709

Audio #1
ID                                       : 2
Format                                   : AAC LC
Format/Info                              : Advanced Audio Codec Low Complexity
Codec ID                                 : A_AAC-2
Duration                                 : 11 min 50 s
Bit rate                                 : 253 kb/s
Channel(s)                               : 2 channels
Channel layout                           : L R
Sampling rate                            : 48.0 kHz
Frame rate                               : 46.875 FPS (1024 SPF)
Compression mode                         : Lossy
Delay relative to video                  : 21 ms
Stream size                              : 21.4 MiB (5%)
Title                                    : English 2ch
Language                                 : English
Default                                  : Yes
Forced                                   : No

Audio #2
ID                                       : 3
Format                                   : AAC LC
Format/Info                              : Advanced Audio Codec Low Complexity
Codec ID                                 : A_AAC-2
Duration                                 : 11 min 50 s
Bit rate                                 : 128 kb/s
Channel(s)                               : 2 channels
Channel layout                           : L R
Sampling rate                            : 44.1 kHz
Frame rate                               : 43.066 FPS (1024 SPF)
Compression mode                         : Lossy
Stream size                              : 10.8 MiB (3%)
Title                                    : Japanese 2ch
Language                                 : Japanese
Default                                  : No
Forced                                   : No

Text #1
ID                                       : 4
Format                                   : ASS
Codec ID                                 : S_TEXT/ASS
Codec ID/Info                            : Advanced Sub Station Alpha
Duration                                 : 11 min 15 s
Bit rate                                 : 310 b/s
Count of elements                        : 164
Compression mode                         : Lossless
Stream size                              : 25.6 KiB (0%)
Title                                    : Signs & Songs
Language                                 : zxx
Default                                  : Yes
Forced                                   : Yes

Text #2
ID                                       : 5
Format                                   : ASS
Codec ID                                 : S_TEXT/ASS
Codec ID/Info                            : Advanced Sub Station Alpha
Duration                                 : 11 min 46 s
Bit rate                                 : 411 b/s
Count of elements                        : 371
Compression mode                         : Lossless
Stream size                              : 35.5 KiB (0%)
Title                                    : No Honorifics
Language                                 : English
Default                                  : No
Forced                                   : No

Text #3
ID                                       : 6
Format                                   : ASS
Codec ID                                 : S_TEXT/ASS
Codec ID/Info                            : Advanced Sub Station Alpha
Duration                                 : 11 min 46 s
Bit rate                                 : 411 b/s
Count of elements                        : 371
Compression mode                         : Lossless
Stream size                              : 35.5 KiB (0%)
Title                                    : Honorifics
Language                                 : enm
Default                                  : No
Forced                                   : No

Menu
00:00:00.033                             : en:Episode
00:10:19.990                             : en:ED
beta
Anime DDL+NZB mirror
Current Time: 17/04/2024 02:01



About/FAQs

Discord