[LostYears] Isekai Quartet - 08 (WEB 1080p x264 10-bit AAC) [6ECF038A].mkv


File Size220.1 MB (230,781,276 bytes)
DownloadClickNUpload | Jheberg | MultiUp
  • BdUpload
  • DownAce
  • Fichier
  • FileCloud
  • Filerio
  • FilesCdn
  • IndiShare
  • Kbagi
  • Turbobit
  • UpToBox
  • Uppit
| OpenLoad | Sendspace | SolidFiles | ZippyShare
HashesCRC32: 6ECF038A, MD5: B5F7D114524849475EC5311DCE45259D, SHA1: 33D82F7B78D5338B6B3B641A5DDB7488336216EA, SHA256: 2E7C90B514A97835EEAE4DD58B0DFFD420021CDA9AC43518655F9B3182363C85, ED2K: BDAC16FF832C5C9B10D08735916B608D
Screenshots
screenshotscreenshotscreenshotscreenshotscreenshot
SubtitlesAll Attachments | Signs & Songs [zxx, ASS], No Honorifics [eng, ASS], Honorifics [enm, ASS]
Additional Info
General
Unique ID                                : 333172850690335414584234953656694778528 (0xFAA6C1C9734613E217275E5E7FD8AAA0)
Complete name                            : [LostYears] Isekai Quartet - 08 (WEB 1080p x264 10-bit AAC) [6ECF038A].mkv
Format                                   : Matroska
Format version                           : Version 4
File size                                : 220 MiB
Duration                                 : 11 min 50 s
Overall bit rate                         : 2 600 kb/s
Movie name                               : [LostYears] Isekai Quartet - 08
Encoded date                             : UTC 2019-06-12 02:42:29
Writing application                      : mkvmerge v25.0.0 ('Prog Noir') 64-bit
Writing library                          : libebml v1.3.6 + libmatroska v1.4.9
Attachments                              : ITCKRIST.TTF / ERASBD.TTF / Crazy Rascals.ttf / bahnschrift.ttf / erasdust.ttf / ARLRDBD.TTF / blowbrush.otf / Cupid Love.ttf / BRLNSR.TTF / arial.ttf / MAGRA-BOLD.TTF / BRADHITC.TTF / Gloss_And_Bloom.ttf / FantasticBoogaloo.ttf

Video
ID                                       : 1
Format                                   : AVC
Format/Info                              : Advanced Video Codec
Format profile                           : High 10@L4
Format settings                          : CABAC / 4 Ref Frames
Format settings, CABAC                   : Yes
Format settings, ReFrames                : 4 frames
Codec ID                                 : V_MPEG4/ISO/AVC
Duration                                 : 11 min 50 s
Bit rate                                 : 2 174 kb/s
Width                                    : 1 920 pixels
Height                                   : 1 080 pixels
Display aspect ratio                     : 16:9
Frame rate mode                          : Constant
Frame rate                               : 23.976 (24000/1001) FPS
Color space                              : YUV
Chroma subsampling                       : 4:2:0
Bit depth                                : 10 bits
Scan type                                : Progressive
Bits/(Pixel*Frame)                       : 0.044
Stream size                              : 184 MiB (84%)
Title                                    : WEB 1080p x264 10-bit [LostYears]
Writing library                          : x264 core 148 r2721kMod 72d53ab
Encoding settings                        : cabac=1 / ref=4 / deblock=1:-1:-1 / analyse=0x3:0x133 / me=umh / subme=10 / psy=1 / fade_compensate=0.00 / psy_rd=0.70:0.00 / mixed_ref=1 / me_range=24 / chroma_me=1 / trellis=2 / 8x8dct=1 / cqm=0 / deadzone=21,11 / fast_pskip=0 / chroma_qp_offset=-2 / threads=12 / lookahead_threads=2 / sliced_threads=0 / nr=0 / decimate=0 / interlaced=0 / bluray_compat=0 / constrained_intra=0 / fgo=0 / bframes=9 / b_pyramid=2 / b_adapt=2 / b_bias=0 / direct=3 / weightb=1 / open_gop=0 / weightp=2 / keyint=240 / keyint_min=23 / scenecut=40 / intra_refresh=0 / rc_lookahead=60 / rc=crf / mbtree=1 / crf=15.6000 / qcomp=0.80 / qpmin=0 / qpmax=79 / qpstep=4 / ip_ratio=1.10 / aq=3:0.80
Language                                 : Japanese
Default                                  : Yes
Forced                                   : No
Color range                              : Limited
Matrix coefficients                      : BT.709

Audio #1
ID                                       : 2
Format                                   : AAC LC
Format/Info                              : Advanced Audio Codec Low Complexity
Codec ID                                 : A_AAC-2
Duration                                 : 11 min 50 s
Bit rate                                 : 253 kb/s
Channel(s)                               : 2 channels
Channel layout                           : L R
Sampling rate                            : 48.0 kHz
Frame rate                               : 46.875 FPS (1024 SPF)
Compression mode                         : Lossy
Delay relative to video                  : 15 ms
Stream size                              : 21.4 MiB (10%)
Title                                    : English 2ch
Language                                 : English
Default                                  : Yes
Forced                                   : No

Audio #2
ID                                       : 3
Format                                   : AAC LC
Format/Info                              : Advanced Audio Codec Low Complexity
Codec ID                                 : A_AAC-2
Duration                                 : 11 min 50 s
Bit rate                                 : 128 kb/s
Channel(s)                               : 2 channels
Channel layout                           : L R
Sampling rate                            : 44.1 kHz
Frame rate                               : 43.066 FPS (1024 SPF)
Compression mode                         : Lossy
Stream size                              : 10.8 MiB (5%)
Title                                    : Japanese 2ch
Language                                 : Japanese
Default                                  : No
Forced                                   : No

Text #1
ID                                       : 4
Format                                   : ASS
Codec ID                                 : S_TEXT/ASS
Codec ID/Info                            : Advanced Sub Station Alpha
Duration                                 : 11 min 50 s
Bit rate                                 : 2 724 b/s
Count of elements                        : 957
Compression mode                         : Lossless
Stream size                              : 236 KiB (0%)
Title                                    : Signs & Songs
Language                                 : zxx
Default                                  : Yes
Forced                                   : Yes

Text #2
ID                                       : 5
Format                                   : ASS
Codec ID                                 : S_TEXT/ASS
Codec ID/Info                            : Advanced Sub Station Alpha
Duration                                 : 11 min 50 s
Bit rate                                 : 2 852 b/s
Count of elements                        : 1160
Compression mode                         : Lossless
Stream size                              : 247 KiB (0%)
Title                                    : No Honorifics
Language                                 : English
Default                                  : No
Forced                                   : No

Text #3
ID                                       : 6
Format                                   : ASS
Codec ID                                 : S_TEXT/ASS
Codec ID/Info                            : Advanced Sub Station Alpha
Duration                                 : 11 min 50 s
Bit rate                                 : 2 852 b/s
Count of elements                        : 1160
Compression mode                         : Lossless
Stream size                              : 247 KiB (0%)
Title                                    : Honorifics
Language                                 : enm
Default                                  : No
Forced                                   : No

Menu
00:00:00.033                             : en:Intro
00:00:15.310                             : en:OP
00:01:45.000                             : en:Episode
00:10:20.620                             : en:ED
00:11:40.010                             : en:After-Credits Scene
beta
Anime DDL+NZB mirror
Current Time: 15/11/2019 03:08



About/FAQs