File Size1.621 GB (1,740,523,859 bytes)
DownloadClickNUpload | DropAPK
DownloadGG: Part1, Part2
MultiUp: Part1
  • BdUpload
  • DownAce
  • Fichier
  • FileCloud
  • Filerio
  • FilesCdn
  • IndiShare
  • Kbagi
  • Turbobit
  • UpToBox
  • Uppit
, Part2
  • BdUpload
  • DownAce
  • Fichier
  • FileCloud
  • Filerio
  • FilesCdn
  • IndiShare
  • Kbagi
  • Turbobit
  • UpToBox
  • Uppit
, Part3
  • BdUpload
  • DownAce
  • Fichier
  • FileCloud
  • Filerio
  • FilesCdn
  • IndiShare
  • Kbagi
  • Turbobit
  • UpToBox
  • Uppit
, Part4
  • BdUpload
  • DownAce
  • Fichier
  • FileCloud
  • Filerio
  • FilesCdn
  • IndiShare
  • Kbagi
  • Turbobit
  • UpToBox
  • Uppit

SolidFiles: Part1, Part2, Part3, Part4
ZippyShare: Part1, Part2, Part3, Part4
HashesCRC32: 0F296529, MD5: 27FF4066BFAB382A26C4FBF862DCF2AA, SHA1: 02DCEED218081F12EADED64622AB31E2A5E849A8, SHA256: 8784F0A5056DA9AA48E5597F3542F7B8AD2CFBDAAA8F904E39F741E682AC188D, ED2K: 04843035B5CC182015133AA4F4C0F3D8
Screenshots
screenshotscreenshotscreenshotscreenshotscreenshot
SubtitlesAll Attachments | Modified R1 DVD Dialogue English [eng, ASS], R1 DVD Dialogue English [eng, VOB], R1 DVD Dialogue English [eng, VOB]
Additional Info
General
Unique ID                                : 319863253652729171323140525026344458319 (0xF0A36BFD2CC4FB9C09B93E91D65C584F)
Complete name                            : [Kuraze] Sengoku Kitan Youtouden Episode 02 (DVD 708x480 H264 Hi10p AC3) [0F296529].mkv
Format                                   : Matroska
Format version                           : Version 4
File size                                : 1.62 GiB
Duration                                 : 40 min 11 s
Overall bit rate                         : 5 773 kb/s
Movie name                               : Sengoku Kitan Youtouden
Encoded date                             : UTC 2021-07-19 08:13:12
Writing application                      : mkvmerge v59.0.0 ('Shining Star') 64-bit
Writing library                          : libebml v1.4.2 + libmatroska v1.6.4
Attachments                              : OpenSans-Semibold_0.ttf / ExpensiveSolutions.ttf / NinjaStrike.otf

Video
ID                                       : 1
Format                                   : AVC
Format/Info                              : Advanced Video Codec
Format profile                           : High 10@L5.2
Format settings                          : CABAC / 16 Ref Frames
Format settings, CABAC                   : Yes
Format settings, ReFrames                : 16 frames
Codec ID                                 : V_MPEG4/ISO/AVC
Duration                                 : 40 min 11 s
Bit rate                                 : 5 576 kb/s
Width                                    : 708 pixels
Height                                   : 480 pixels
Display aspect ratio                     : 4:3
Original display aspect ratio            : 3:2
Frame rate mode                          : Constant
Frame rate                               : 23.976 (24000/1001) FPS
Color space                              : YUV
Chroma subsampling                       : 4:2:0
Bit depth                                : 10 bits
Scan type                                : Progressive
Bits/(Pixel*Frame)                       : 0.684
Stream size                              : 1.57 GiB (97%)
Title                                    : Episode 02 - Demon's Cry
Writing library                          : x264 core 164 r3065 ae03d92
Encoding settings                        : cabac=1 / ref=16 / deblock=1:0:0 / analyse=0x3:0x133 / me=tesa / subme=10 / psy=1 / psy_rd=1.00:0.00 / mixed_ref=1 / me_range=16 / chroma_me=1 / trellis=2 / 8x8dct=1 / cqm=0 / deadzone=21,11 / fast_pskip=0 / chroma_qp_offset=-2 / threads=6 / lookahead_threads=1 / sliced_threads=0 / nr=0 / decimate=0 / interlaced=0 / bluray_compat=0 / constrained_intra=0 / bframes=16 / b_pyramid=2 / b_adapt=2 / b_bias=0 / direct=3 / weightb=1 / open_gop=0 / weightp=2 / keyint=288 / keyint_min=23 / scenecut=40 / intra_refresh=0 / rc_lookahead=250 / rc=crf / mbtree=1 / crf=16.0 / qcomp=0.80 / qpmin=0 / qpmax=69 / qpstep=4 / vbv_maxrate=300000 / vbv_bufsize=300000 / crf_max=0.0 / nal_hrd=none / filler=0 / ip_ratio=1.30 / aq=1:1.00
Language                                 : Japanese
Default                                  : Yes
Forced                                   : No

Audio
ID                                       : 2
Format                                   : AC-3
Format/Info                              : Audio Coding 3
Commercial name                          : Dolby Digital
Codec ID                                 : A_AC3
Duration                                 : 40 min 11 s
Bit rate mode                            : Constant
Bit rate                                 : 192 kb/s
Channel(s)                               : 2 channels
Channel layout                           : L R
Sampling rate                            : 48.0 kHz
Frame rate                               : 31.250 FPS (1536 SPF)
Bit depth                                : 16 bits
Compression mode                         : Lossy
Stream size                              : 55.2 MiB (3%)
Title                                    : Dolby Digital 2.0 Japanese
Language                                 : Japanese
Service kind                             : Complete Main
Default                                  : Yes
Forced                                   : No

Text #1
ID                                       : 3
Format                                   : ASS
Codec ID                                 : S_TEXT/ASS
Codec ID/Info                            : Advanced Sub Station Alpha
Duration                                 : 37 min 14 s
Bit rate                                 : 98 b/s
Count of elements                        : 377
Compression mode                         : Lossless
Stream size                              : 27.0 KiB (0%)
Title                                    : Modified R1 DVD Dialogue English
Language                                 : English
Default                                  : Yes
Forced                                   : No

Text #2
ID                                       : 4
Format                                   : VobSub
Muxing mode                              : zlib
Codec ID                                 : S_VOBSUB
Codec ID/Info                            : Picture based subtitle format used on DVDs
Duration                                 : 37 min 13 s
Bit rate                                 : 4 070 b/s
Count of elements                        : 369
Stream size                              : 1.08 MiB (0%)
Title                                    : R1 DVD Dialogue English
Language                                 : English
Default                                  : No
Forced                                   : No

Menu

Other Files in this Torrent
[Kuraze] Sengoku Kitan Youtouden Episode 02 (DVD 708x480 H264 Hi10p AC3) [0F296529].mkv
beta
Anime DDL+NZB mirror
Current Time: 26/09/2021 04:12



About/FAQs

Discord