File Size42.07 MB (44,111,063 bytes)
DownloadAnonFiles | ClickNUpload | DownloadGG | DropAPK | MultiUp
  • BdUpload
  • DownAce
  • Fichier
  • FileCloud
  • Filerio
  • FilesCdn
  • IndiShare
  • Kbagi
  • Turbobit
  • UpToBox
  • Uppit
| SolidFiles | ZippyShare
HashesCRC32: 99A3448F, MD5: 7097286199758C7240487153843B54CF, SHA1: B9E24D74327BDA97DA2C79B5B5294658A79C18BA, SHA256: 554E3BDD59267B4D703A309862BB7D48B84C73768BCB40926ED2ECC673B7ACCA, ED2K: 1170ED902B94A68D5A8826EA2D356A80
Screenshots
screenshotscreenshot
Additional Info
General
Unique ID                                : 127701784624833317560038225807602301224 (0x60127816AE046F5F2107DB929B433928)
Complete name                            : [Kuraze] Sengoku Kitan Youtouden Art Gallery (DVD 720x480 H264 Hi10p AC3) [99A3448F].mkv
Format                                   : Matroska
Format version                           : Version 4
File size                                : 42.1 MiB
Duration                                 : 1 min 38 s
Overall bit rate                         : 3 599 kb/s
Movie name                               : Sengoku Kitan Youtouden
Encoded date                             : UTC 2021-07-18 20:15:20
Writing application                      : mkvmerge v59.0.0 ('Shining Star') 64-bit
Writing library                          : libebml v1.4.2 + libmatroska v1.6.4

Video
ID                                       : 1
Format                                   : AVC
Format/Info                              : Advanced Video Codec
Format profile                           : High 10@L5.2
Format settings                          : CABAC / 16 Ref Frames
Format settings, CABAC                   : Yes
Format settings, ReFrames                : 16 frames
Codec ID                                 : V_MPEG4/ISO/AVC
Duration                                 : 1 min 38 s
Bit rate                                 : 3 406 kb/s
Width                                    : 720 pixels
Height                                   : 480 pixels
Display aspect ratio                     : 4:3
Original display aspect ratio            : 3:2
Frame rate mode                          : Constant
Frame rate                               : 23.976 (24000/1001) FPS
Color space                              : YUV
Chroma subsampling                       : 4:2:0
Bit depth                                : 10 bits
Scan type                                : Progressive
Bits/(Pixel*Frame)                       : 0.411
Stream size                              : 39.8 MiB (95%)
Title                                    : Art Gallery
Writing library                          : x264 core 164 r3065 ae03d92
Encoding settings                        : cabac=1 / ref=16 / deblock=1:0:0 / analyse=0x3:0x133 / me=tesa / subme=10 / psy=1 / psy_rd=1.00:0.00 / mixed_ref=1 / me_range=16 / chroma_me=1 / trellis=2 / 8x8dct=1 / cqm=0 / deadzone=21,11 / fast_pskip=0 / chroma_qp_offset=-2 / threads=6 / lookahead_threads=1 / sliced_threads=0 / nr=0 / decimate=0 / interlaced=0 / bluray_compat=0 / constrained_intra=0 / bframes=16 / b_pyramid=2 / b_adapt=2 / b_bias=0 / direct=3 / weightb=1 / open_gop=0 / weightp=2 / keyint=288 / keyint_min=23 / scenecut=40 / intra_refresh=0 / rc_lookahead=250 / rc=crf / mbtree=1 / crf=16.0 / qcomp=0.80 / qpmin=0 / qpmax=69 / qpstep=4 / vbv_maxrate=300000 / vbv_bufsize=300000 / crf_max=0.0 / nal_hrd=none / filler=0 / ip_ratio=1.30 / aq=1:1.00
Language                                 : Japanese
Default                                  : Yes
Forced                                   : No

Audio
ID                                       : 2
Format                                   : AC-3
Format/Info                              : Audio Coding 3
Commercial name                          : Dolby Digital
Codec ID                                 : A_AC3
Duration                                 : 1 min 37 s
Bit rate mode                            : Constant
Bit rate                                 : 192 kb/s
Channel(s)                               : 2 channels
Channel layout                           : L R
Sampling rate                            : 48.0 kHz
Frame rate                               : 31.250 FPS (1536 SPF)
Bit depth                                : 16 bits
Compression mode                         : Lossy
Stream size                              : 2.22 MiB (5%)
Title                                    : Dolby Digital 2.0
Language                                 : Japanese
Service kind                             : Complete Main
Default                                  : Yes
Forced                                   : No

Other Files in this Torrent
[Kuraze] Sengoku Kitan Youtouden Art Gallery (DVD 720x480 H264 Hi10p AC3) [99A3448F].mkv
beta
Anime DDL+NZB mirror
Current Time: 26/09/2021 04:08



About/FAQs

Discord