[KH] Tsuredure Children - 12 - Summer Begins.mkv


File Size995.7 MB (1,044,061,293 bytes)
DownloadClickNUpload | Jheberg | OpenLoad
MultiUp: Part1
  • BdUpload
  • DownAce
  • Fichier
  • FileCloud
  • Filerio
  • FilesCdn
  • IndiShare
  • Kbagi
  • Turbobit
  • UpToBox
  • Uppit
, Part2
  • BdUpload
  • DownAce
  • Fichier
  • FileCloud
  • Filerio
  • FilesCdn
  • IndiShare
  • Kbagi
  • Turbobit
  • UpToBox
  • Uppit

Sendspace: Part1, Part2, Part3, Part4
SolidFiles: Part1, Part2
ZippyShare: Part1, Part2
HashesCRC32: 8CD96E5A, MD5: E234A7A5D5796525A754EA72FBD78787, SHA1: A365A44698CC33BC287EDD6F0E6110295E07FADF, SHA256: 8651689F2CCA2EFDD54114AB8DF6575F9AFEA7A7F7A32B41A3F17AE69BD35E9D, ED2K: 88D436D405F927BB0ACE448FABC773DD
Screenshots
screenshotscreenshotscreenshotscreenshotscreenshot
SubtitlesAll Attachments | eng [PGS], Signs/Songs [eng, ASS], Full Subs [eng, ASS]
Additional Info
General
Unique ID                                : 42897320494062812605151973146679247961 (0x2045B931395A6CD3E45D7384F80B0459)
Complete name                            : [KH] Tsuredure Children - 12 - Summer Begins.mkv
Format                                   : Matroska
Format version                           : Version 4
File size                                : 996 MiB
Duration                                 : 12 min 32 s
Overall bit rate mode                    : Variable
Overall bit rate                         : 11.1 Mb/s
Encoded date                             : UTC 2019-06-12 06:26:40
Writing application                      : mkvmerge v33.1.0 ('Primrose') 64-bit
Writing library                          : libebml v1.3.7 + libmatroska v1.5.0
Attachments                              : A-OTF-CAPIENSTD-MEDIUM.OTF / Armata-Regular.ttf / Arvin Light.ttf / BALZANO.TTF / BELLEZA-REGULAR.TTF / Cronos-Pro-Bold_12435.ttf / DK Crayon Crumble_2.ttf / pencilfied.ttf

Video
ID                                       : 1
Format                                   : AVC
Format/Info                              : Advanced Video Codec
Format profile                           : High@L4.1
Format settings                          : CABAC / 4 Ref Frames
Format settings, CABAC                   : Yes
Format settings, ReFrames                : 4 frames
Codec ID                                 : V_MPEG4/ISO/AVC
Duration                                 : 12 min 32 s
Bit rate                                 : 8 319 kb/s
Width                                    : 1 920 pixels
Height                                   : 1 080 pixels
Display aspect ratio                     : 16:9
Frame rate mode                          : Constant
Frame rate                               : 23.976 (24000/1001) FPS
Color space                              : YUV
Chroma subsampling                       : 4:2:0
Bit depth                                : 8 bits
Scan type                                : Progressive
Bits/(Pixel*Frame)                       : 0.167
Stream size                              : 746 MiB (75%)
Writing library                          : x264 core 155 r2901 7d0ff22
Encoding settings                        : cabac=1 / ref=4 / deblock=1:-1:-1 / analyse=0x3:0x133 / me=umh / subme=9 / psy=1 / psy_rd=0.85:0.00 / mixed_ref=1 / me_range=32 / chroma_me=1 / trellis=2 / 8x8dct=1 / cqm=0 / deadzone=21,11 / fast_pskip=1 / chroma_qp_offset=-4 / threads=4 / lookahead_threads=1 / sliced_threads=0 / nr=0 / decimate=0 / interlaced=0 / bluray_compat=0 / constrained_intra=0 / bframes=5 / b_pyramid=2 / b_adapt=2 / b_bias=0 / direct=2 / weightb=1 / open_gop=0 / weightp=2 / keyint=230 / keyint_min=23 / scenecut=40 / intra_refresh=0 / rc_lookahead=50 / rc=crf / mbtree=1 / crf=15.0 / qcomp=0.70 / qpmin=10 / qpmax=42 / qpstep=4 / vbv_maxrate=50000 / vbv_bufsize=50000 / crf_max=0.0 / nal_hrd=none / filler=0 / ip_ratio=1.40 / aq=1:0.90
Language                                 : English
Default                                  : Yes
Forced                                   : No

Audio #1
ID                                       : 5
Format                                   : FLAC
Format/Info                              : Free Lossless Audio Codec
Codec ID                                 : A_FLAC
Duration                                 : 12 min 32 s
Bit rate mode                            : Variable
Bit rate                                 : 1 475 kb/s
Channel(s)                               : 2 channels
Channel layout                           : L R
Sampling rate                            : 48.0 kHz
Frame rate                               : 11.719 FPS (4096 SPF)
Bit depth                                : 24 bits
Compression mode                         : Lossless
Stream size                              : 132 MiB (13%)
Writing library                          : libFLAC 1.3.1 (UTC 2014-11-25)
Language                                 : Japanese
Default                                  : Yes
Forced                                   : No

Audio #2
ID                                       : 6
Format                                   : FLAC
Format/Info                              : Free Lossless Audio Codec
Codec ID                                 : A_FLAC
Duration                                 : 12 min 32 s
Bit rate mode                            : Variable
Bit rate                                 : 1 281 kb/s
Channel(s)                               : 2 channels
Channel layout                           : L R
Sampling rate                            : 48.0 kHz
Frame rate                               : 11.719 FPS (4096 SPF)
Bit depth                                : 24 bits
Compression mode                         : Lossless
Stream size                              : 115 MiB (12%)
Writing library                          : libFLAC 1.3.1 (UTC 2014-11-25)
Language                                 : English
Default                                  : No
Forced                                   : No

Text #1
ID                                       : 2
Format                                   : PGS
Muxing mode                              : zlib
Codec ID                                 : S_HDMV/PGS
Codec ID/Info                            : Picture based subtitle format used on BDs/HD-DVDs
Duration                                 : 12 min 13 s
Bit rate                                 : 45.4 kb/s
Count of elements                        : 460
Stream size                              : 3.97 MiB (0%)
Language                                 : English
Default                                  : No
Forced                                   : No

Text #2
ID                                       : 3
Format                                   : ASS
Codec ID                                 : S_TEXT/ASS
Codec ID/Info                            : Advanced Sub Station Alpha
Duration                                 : 12 min 14 s
Bit rate                                 : 678 b/s
Count of elements                        : 282
Compression mode                         : Lossless
Stream size                              : 60.8 KiB (0%)
Title                                    : Signs/Songs
Language                                 : English
Default                                  : Yes
Forced                                   : No

Text #3
ID                                       : 4
Format                                   : ASS
Codec ID                                 : S_TEXT/ASS
Codec ID/Info                            : Advanced Sub Station Alpha
Duration                                 : 12 min 14 s
Bit rate                                 : 797 b/s
Count of elements                        : 494
Compression mode                         : Lossless
Stream size                              : 71.5 KiB (0%)
Title                                    : Full Subs
Language                                 : English
Default                                  : No
Forced                                   : No

Menu
00:00:00.000                             : en:Opening
00:01:01.061                             : en:Episode
00:10:56.405                             : en:Ending

Other Files in this Torrent
[KH] Tsuredure Children - 12 - Summer Begins.mkv
beta
Anime DDL+NZB mirror
Current Time: 15/12/2019 18:47



About/FAQs