[KH] Tsuredure Children - 05 - Watching You from Afar.mkv


File Size884.1 MB (927,061,929 bytes)
DownloadClickNUpload | Jheberg | OpenLoad
MultiUp: Part1
  • BdUpload
  • DownAce
  • Fichier
  • FileCloud
  • Filerio
  • FilesCdn
  • IndiShare
  • Kbagi
  • Turbobit
  • UpToBox
  • Uppit
, Part2
  • BdUpload
  • DownAce
  • Fichier
  • FileCloud
  • Filerio
  • FilesCdn
  • IndiShare
  • Kbagi
  • Turbobit
  • UpToBox
  • Uppit

Sendspace: Part1, Part2, Part3
SolidFiles: Part1, Part2
ZippyShare: Part1, Part2
HashesCRC32: 32398919, MD5: 4E04AF1C150B1FD0297EFA922E6B4744, SHA1: 38747806392F85A449842937A4FB71ED278BF6FA, SHA256: 1BA719547EC50E15DE599C470315B1E27E7A76936DAA11C1406FE7B1E91FEF7D, ED2K: F3D9CFF492476F0130E6574D24ED91EE
Screenshots
screenshotscreenshotscreenshotscreenshotscreenshot
SubtitlesAll Attachments | eng [PGS], Signs/Songs [eng, ASS], Full Subs [eng, ASS]
Additional Info
General
Unique ID                                : 249856626177226624766864774404487004698 (0xBBF8A2C4D37F2B412EB8064FC384421A)
Complete name                            : [KH] Tsuredure Children - 05 - Watching You from Afar.mkv
Format                                   : Matroska
Format version                           : Version 4
File size                                : 884 MiB
Duration                                 : 12 min 32 s
Overall bit rate mode                    : Variable
Overall bit rate                         : 9 850 kb/s
Encoded date                             : UTC 2019-06-12 06:05:04
Writing application                      : mkvmerge v33.1.0 ('Primrose') 64-bit
Writing library                          : libebml v1.3.7 + libmatroska v1.5.0
Attachments                              : BELLEZA-REGULAR.TTF / BrandonText-Medium.otf / Cronos-Pro-Bold_12435.ttf / CronosPro-Semibold.ttf / CronosPro-SemiboldIt.ttf / Suplexmentary Comic NC.ttf / Aller Light.ttf / Arab Becker Brushstroke Regular.ttf / Armata-Regular.ttf / Arvin Light.ttf

Video
ID                                       : 1
Format                                   : AVC
Format/Info                              : Advanced Video Codec
Format profile                           : High@L4.1
Format settings                          : CABAC / 4 Ref Frames
Format settings, CABAC                   : Yes
Format settings, ReFrames                : 4 frames
Codec ID                                 : V_MPEG4/ISO/AVC
Duration                                 : 12 min 32 s
Bit rate                                 : 7 097 kb/s
Width                                    : 1 920 pixels
Height                                   : 1 080 pixels
Display aspect ratio                     : 16:9
Frame rate mode                          : Constant
Frame rate                               : 23.976 (24000/1001) FPS
Color space                              : YUV
Chroma subsampling                       : 4:2:0
Bit depth                                : 8 bits
Scan type                                : Progressive
Bits/(Pixel*Frame)                       : 0.143
Stream size                              : 636 MiB (72%)
Writing library                          : x264 core 155 r2901 7d0ff22
Encoding settings                        : cabac=1 / ref=4 / deblock=1:-1:-1 / analyse=0x3:0x133 / me=umh / subme=9 / psy=1 / psy_rd=0.85:0.00 / mixed_ref=1 / me_range=32 / chroma_me=1 / trellis=2 / 8x8dct=1 / cqm=0 / deadzone=21,11 / fast_pskip=1 / chroma_qp_offset=-4 / threads=4 / lookahead_threads=1 / sliced_threads=0 / nr=0 / decimate=0 / interlaced=0 / bluray_compat=0 / constrained_intra=0 / bframes=5 / b_pyramid=2 / b_adapt=2 / b_bias=0 / direct=2 / weightb=1 / open_gop=0 / weightp=2 / keyint=230 / keyint_min=23 / scenecut=40 / intra_refresh=0 / rc_lookahead=50 / rc=crf / mbtree=1 / crf=15.0 / qcomp=0.70 / qpmin=10 / qpmax=42 / qpstep=4 / vbv_maxrate=50000 / vbv_bufsize=50000 / crf_max=0.0 / nal_hrd=none / filler=0 / ip_ratio=1.40 / aq=1:0.90
Language                                 : English
Default                                  : Yes
Forced                                   : No

Audio #1
ID                                       : 5
Format                                   : FLAC
Format/Info                              : Free Lossless Audio Codec
Codec ID                                 : A_FLAC
Duration                                 : 12 min 32 s
Bit rate mode                            : Variable
Bit rate                                 : 1 456 kb/s
Channel(s)                               : 2 channels
Channel layout                           : L R
Sampling rate                            : 48.0 kHz
Frame rate                               : 11.719 FPS (4096 SPF)
Bit depth                                : 24 bits
Compression mode                         : Lossless
Stream size                              : 130 MiB (15%)
Writing library                          : libFLAC 1.3.1 (UTC 2014-11-25)
Language                                 : Japanese
Default                                  : Yes
Forced                                   : No

Audio #2
ID                                       : 6
Format                                   : FLAC
Format/Info                              : Free Lossless Audio Codec
Codec ID                                 : A_FLAC
Duration                                 : 12 min 32 s
Bit rate mode                            : Variable
Bit rate                                 : 1 276 kb/s
Channel(s)                               : 2 channels
Channel layout                           : L R
Sampling rate                            : 48.0 kHz
Frame rate                               : 11.719 FPS (4096 SPF)
Bit depth                                : 24 bits
Compression mode                         : Lossless
Stream size                              : 114 MiB (13%)
Writing library                          : libFLAC 1.3.1 (UTC 2014-11-25)
Language                                 : English
Default                                  : No
Forced                                   : No

Text #1
ID                                       : 2
Format                                   : PGS
Muxing mode                              : zlib
Codec ID                                 : S_HDMV/PGS
Codec ID/Info                            : Picture based subtitle format used on BDs/HD-DVDs
Duration                                 : 12 min 18 s
Bit rate                                 : 59.1 kb/s
Count of elements                        : 537
Stream size                              : 5.21 MiB (1%)
Language                                 : English
Default                                  : No
Forced                                   : No

Text #2
ID                                       : 3
Format                                   : ASS
Codec ID                                 : S_TEXT/ASS
Codec ID/Info                            : Advanced Sub Station Alpha
Duration                                 : 12 min 19 s
Bit rate                                 : 1 142 b/s
Count of elements                        : 686
Compression mode                         : Lossless
Stream size                              : 103 KiB (0%)
Title                                    : Signs/Songs
Language                                 : English
Default                                  : Yes
Forced                                   : No

Text #3
ID                                       : 4
Format                                   : ASS
Codec ID                                 : S_TEXT/ASS
Codec ID/Info                            : Advanced Sub Station Alpha
Duration                                 : 12 min 20 s
Bit rate                                 : 1 281 b/s
Count of elements                        : 926
Compression mode                         : Lossless
Stream size                              : 116 KiB (0%)
Title                                    : Full Subs
Language                                 : English
Default                                  : No
Forced                                   : No

Menu
00:00:00.000                             : en:Opening
00:01:01.061                             : en:Episode
00:11:26.060                             : en:Ending
00:12:25.995                             : en:Preview

Other Files in this Torrent
[KH] Tsuredure Children - 05 - Watching You from Afar.mkv
beta
Anime DDL+NZB mirror
Current Time: 15/12/2019 02:34



About/FAQs