File Size194.3 MB (203,731,191 bytes)
DownloadGo4Up | Jheberg | MultiUp | Sendspace | ShareBeast | SolidFiles | TusFiles | UsersFiles
Encrypted DownloadDirect
Password:
HashesCRC32: 48ADAB26, MD5: 17745577601F98B76AB8058212CA8160, SHA1: D178F465C77C1CCD166B62F2677F5F2E78B45A6C, ED2K: 973526DD194B1CFB8371AF968FF6027C
Screenshots
screenshotscreenshotscreenshotscreenshotscreenshot
Additional Info
General
Complete name                            : [JacobSwaggedUp] Tokyo Ghoul - 09 (BD 1280x720).mp4
Format                                   : MPEG-4
Format profile                           : Base Media
Codec ID                                 : isom
File size                                : 194 MiB
Duration                                 : 24mn 5s
Overall bit rate mode                    : Variable
Overall bit rate                         : 1 128 Kbps
Encoded date                             : UTC 2015-02-06 23:41:06
Tagged date                              : UTC 2015-02-06 23:41:06

Video
ID                                       : 1
Format                                   : AVC
Format/Info                              : Advanced Video Codec
Format profile                           : High@L4.1
Format settings, CABAC                   : Yes
Format settings, ReFrames                : 4 frames
Codec ID                                 : avc1
Codec ID/Info                            : Advanced Video Coding
Duration                                 : 24mn 5s
Bit rate                                 : 876 Kbps
Maximum bit rate                         : 6 764 Kbps
Width                                    : 1 280 pixels
Height                                   : 720 pixels
Display aspect ratio                     : 16:9
Frame rate mode                          : Constant
Frame rate                               : 23.976 fps
Color space                              : YUV
Chroma subsampling                       : 4:2:0
Bit depth                                : 8 bits
Scan type                                : Progressive
Bits/(Pixel*Frame)                       : 0.040
Stream size                              : 151 MiB (78%)
Writing library                          : x264 core 142 r2431 ac76440
Encoding settings                        : cabac=1 / ref=2 / deblock=1:0:0 / analyse=0x3:0x113 / me=hex / subme=6 / psy=1 / psy_rd=1.00:0.00 / mixed_ref=1 / me_range=16 / chroma_me=1 / trellis=1 / 8x8dct=1 / cqm=0 / deadzone=21,11 / fast_pskip=1 / chroma_qp_offset=-2 / threads=6 / lookahead_threads=1 / sliced_threads=0 / nr=0 / decimate=1 / interlaced=0 / bluray_compat=0 / constrained_intra=0 / bframes=3 / b_pyramid=2 / b_adapt=1 / b_bias=0 / direct=1 / weightb=1 / open_gop=0 / weightp=1 / keyint=240 / keyint_min=23 / scenecut=40 / intra_refresh=0 / rc_lookahead=30 / rc=crf / mbtree=1 / crf=20.0 / qcomp=0.60 / qpmin=0 / qpmax=69 / qpstep=4 / vbv_maxrate=31250 / vbv_bufsize=31250 / crf_max=0.0 / nal_hrd=none / filler=0 / ip_ratio=1.40 / aq=1:1.00
Encoded date                             : UTC 2015-02-06 23:41:06
Tagged date                              : UTC 2015-02-06 23:43:38

Audio
ID                                       : 2
Format                                   : AAC
Format/Info                              : Advanced Audio Codec
Format profile                           : LC
Codec ID                                 : 40
Duration                                 : 24mn 5s
Bit rate mode                            : Variable
Bit rate                                 : 248 Kbps
Maximum bit rate                         : 365 Kbps
Channel(s)                               : 2 channels
Channel positions                        : Front: L R
Sampling rate                            : 48.0 KHz
Compression mode                         : Lossy
Stream size                              : 42.8 MiB (22%)
Encoded date                             : UTC 2015-02-06 22:37:38
Tagged date                              : UTC 2015-02-06 23:43:38

Menu
00:00:00.000                             : Intro
00:06:15.930                             : OP
00:07:45.980                             : Part A
00:13:51.970                             : Part B
00:22:05.010                             : ED
00:23:34.970                             : Preview

Other Files in this Torrent
[JacobSwaggedUp] Tokyo Ghoul - 09 (BD 1280x720).mp4
beta
Anime DDL+NZB mirror
Current Time: 15/11/2019 22:59



About/FAQs