File Size270.5 MB (283,598,395 bytes)
DownloadGo4Up | Jheberg | MultiUp | Sendspace | SolidFiles | TusFiles | UsersFiles
ShareBeast: Part1, Part2
Encrypted DownloadDirect
Password:
HashesCRC32: 137A0490, MD5: 7B8BD063F51248F73086034DC0562D76, SHA1: E3E70F9D73C329A983BF21217786ACF7E33C1F6B, ED2K: 71E858BE020ADE8D886E3D33284C97C8
Screenshots
screenshotscreenshotscreenshotscreenshotscreenshot
Additional Info
General
Complete name                            : [JacobSwaggedUp] Tokyo Ghoul - 07 (BD 1280x720).mp4
Format                                   : MPEG-4
Format profile                           : Base Media
Codec ID                                 : isom
File size                                : 270 MiB
Duration                                 : 24mn 6s
Overall bit rate mode                    : Variable
Overall bit rate                         : 1 569 Kbps
Encoded date                             : UTC 2015-02-06 21:17:32
Tagged date                              : UTC 2015-02-06 21:17:32

Video
ID                                       : 1
Format                                   : AVC
Format/Info                              : Advanced Video Codec
Format profile                           : High@L4.1
Format settings, CABAC                   : Yes
Format settings, ReFrames                : 4 frames
Codec ID                                 : avc1
Codec ID/Info                            : Advanced Video Coding
Duration                                 : 24mn 5s
Bit rate                                 : 1 301 Kbps
Maximum bit rate                         : 9 897 Kbps
Width                                    : 1 280 pixels
Height                                   : 720 pixels
Display aspect ratio                     : 16:9
Frame rate mode                          : Constant
Frame rate                               : 23.976 fps
Color space                              : YUV
Chroma subsampling                       : 4:2:0
Bit depth                                : 8 bits
Scan type                                : Progressive
Bits/(Pixel*Frame)                       : 0.059
Stream size                              : 224 MiB (83%)
Writing library                          : x264 core 142 r2431 ac76440
Encoding settings                        : cabac=1 / ref=2 / deblock=1:0:0 / analyse=0x3:0x113 / me=hex / subme=6 / psy=1 / psy_rd=1.00:0.00 / mixed_ref=1 / me_range=16 / chroma_me=1 / trellis=1 / 8x8dct=1 / cqm=0 / deadzone=21,11 / fast_pskip=1 / chroma_qp_offset=-2 / threads=6 / lookahead_threads=1 / sliced_threads=0 / nr=0 / decimate=1 / interlaced=0 / bluray_compat=0 / constrained_intra=0 / bframes=3 / b_pyramid=2 / b_adapt=1 / b_bias=0 / direct=1 / weightb=1 / open_gop=0 / weightp=1 / keyint=240 / keyint_min=23 / scenecut=40 / intra_refresh=0 / rc_lookahead=30 / rc=crf / mbtree=1 / crf=20.0 / qcomp=0.60 / qpmin=0 / qpmax=69 / qpstep=4 / vbv_maxrate=31250 / vbv_bufsize=31250 / crf_max=0.0 / nal_hrd=none / filler=0 / ip_ratio=1.40 / aq=1:1.00
Encoded date                             : UTC 2015-02-06 21:17:32
Tagged date                              : UTC 2015-02-06 21:17:58

Audio
ID                                       : 2
Format                                   : AAC
Format/Info                              : Advanced Audio Codec
Format profile                           : LC
Codec ID                                 : 40
Duration                                 : 24mn 6s
Bit rate mode                            : Variable
Bit rate                                 : 265 Kbps
Maximum bit rate                         : 377 Kbps
Channel(s)                               : 2 channels
Channel positions                        : Front: L R
Sampling rate                            : 48.0 KHz
Compression mode                         : Lossy
Stream size                              : 45.6 MiB (17%)
Encoded date                             : UTC 2015-02-06 20:12:20
Tagged date                              : UTC 2015-02-06 21:17:58

Menu
00:00:00.000                             : Intro
00:02:18.990                             : OP
00:03:49.000                             : Part A
00:10:56.920                             : Part B
00:22:05.920                             : ED
00:23:35.890                             : Preview

Other Files in this Torrent
[JacobSwaggedUp] Tokyo Ghoul - 07 (BD 1280x720).mp4
beta
Anime DDL+NZB mirror
Current Time: 15/11/2019 23:38



About/FAQs