File Size198.4 MB (208,002,430 bytes)
DownloadClickNUpload | DailyUploads | DownloadGG | GoFile | KrakenFiles | MdiaLoad | MultiUp
  • BdUpload
  • DownAce
  • Fichier
  • FileCloud
  • Filerio
  • FilesCdn
  • IndiShare
  • Kbagi
  • Turbobit
  • UpToBox
  • Uppit
| Uppit
HashesCRC32: 040A73C6, MD5: EFA892D8E0F44736641BE34480F533DE, SHA1: EE3D3BFFC092747B39A28A75DDA6E19858EC85F3, SHA256: B4B2B541C0F821A091F9A31773D109FEAE05FB121816AA93267E54F8CD3164EB, ED2K: 0549891B320FFF6C0E3ADDEA8C5ED2CA
Screenshots
screenshotscreenshotscreenshotscreenshotscreenshot
Additional Info
General
Complete name                            : [JacobSwaggedUp] Slime Taoshite 300-nen, Shiranai Uchi ni Level Max ni Nattemashita - 04 (BD 1280x720).mp4
Format                                   : MPEG-4
Format profile                           : Base Media
Codec ID                                 : isom (isom/avc1)
File size                                : 198 MiB
Duration                                 : 24 min 1 s
Overall bit rate mode                    : Variable
Overall bit rate                         : 1 155 kb/s
Frame rate                               : 23.976 FPS
Encoded date                             : 2023-11-19 21:59:20 UTC
Tagged date                              : 2023-11-19 21:59:20 UTC
Writing application                      : GPAC-2.2-rev0-gab012bbfb-ab-suite

Video
ID                                       : 1
Format                                   : AVC
Format/Info                              : Advanced Video Codec
Format profile                           : High@L4.1
Format settings                          : CABAC / 6 Ref Frames
Format settings, CABAC                   : Yes
Format settings, Reference frames        : 6 frames
Codec ID                                 : avc1
Codec ID/Info                            : Advanced Video Coding
Duration                                 : 24 min 1 s
Bit rate                                 : 1 020 kb/s
Maximum bit rate                         : 6 019 kb/s
Width                                    : 1 280 pixels
Height                                   : 720 pixels
Display aspect ratio                     : 16:9
Frame rate mode                          : Constant
Frame rate                               : 23.976 (24000/1001) FPS
Color space                              : YUV
Chroma subsampling                       : 4:2:0
Bit depth                                : 8 bits
Scan type                                : Progressive
Bits/(Pixel*Frame)                       : 0.046
Stream size                              : 175 MiB (88%)
Writing library                          : x264 core 164 r3107 a8b68eb
Encoding settings                        : cabac=1 / ref=6 / deblock=1:1:1 / analyse=0x3:0x113 / me=hex / subme=7 / psy=1 / psy_rd=0.40:0.00 / mixed_ref=1 / me_range=16 / chroma_me=1 / trellis=1 / 8x8dct=1 / cqm=0 / deadzone=21,11 / fast_pskip=1 / chroma_qp_offset=-2 / threads=22 / lookahead_threads=3 / sliced_threads=0 / nr=0 / decimate=1 / interlaced=0 / bluray_compat=0 / constrained_intra=0 / bframes=5 / b_pyramid=2 / b_adapt=1 / b_bias=0 / direct=1 / weightb=1 / open_gop=0 / weightp=2 / keyint=240 / keyint_min=23 / scenecut=40 / intra_refresh=0 / rc_lookahead=40 / rc=crf / mbtree=1 / crf=22.0 / qcomp=0.60 / qpmin=0 / qpmax=69 / qpstep=4 / vbv_maxrate=31250 / vbv_bufsize=31250 / crf_max=0.0 / nal_hrd=none / filler=0 / ip_ratio=1.40 / aq=1:0.60
Encoded date                             : 2023-11-19 21:59:20 UTC
Tagged date                              : 2023-11-19 21:59:21 UTC
mdhd_Duration                            : 1441315
Codec configuration box                  : avcC

Audio
ID                                       : 2
Format                                   : AAC LC
Format/Info                              : Advanced Audio Codec Low Complexity
Codec ID                                 : mp4a-40-2
Duration                                 : 24 min 1 s
Source duration                          : 24 min 1 s
Source_Duration_LastFrame                : -6 ms
Bit rate mode                            : Variable
Bit rate                                 : 132 kb/s
Maximum bit rate                         : 150 kb/s
Channel(s)                               : 2 channels
Channel layout                           : L R
Sampling rate                            : 48.0 kHz
Frame rate                               : 46.875 FPS (1024 SPF)
Compression mode                         : Lossy
Stream size                              : 22.4 MiB (11%)
Source stream size                       : 22.4 MiB (11%)
Default                                  : Yes
Alternate group                          : 1
Tagged date                              : 2023-11-19 21:59:21 UTC

Menu
00:00:00.000                             : Prologue
00:01:24.001                             : Opening
00:02:54.049                             : Slime Taoshite 300-nen, Shiranai Uchi ni Level Max ni Nattemashita 04
00:22:10.079                             : Ending
00:23:40.085                             : Preview

Other Files in this Torrent
[JacobSwaggedUp] Slime Taoshite 300-nen, Shiranai Uchi ni Level Max ni Nattemashita - 04 (BD 1280x720).mp4
beta
Anime DDL+NZB mirror
Current Time: 22/02/2024 20:46



About/FAQs

Discord