Inspector Gadget - Episode 01 [Gary Owens Pilot Dub] [DVD-REMUX].mkv


File Size837.9 MB (878,593,582 bytes)
DownloadAnonFiles | ClickNUpload | DropAPK | Free
MultiUp: Part1
  • BdUpload
  • DownAce
  • Fichier
  • FileCloud
  • Filerio
  • FilesCdn
  • IndiShare
  • Kbagi
  • Turbobit
  • UpToBox
  • Uppit
, Part2
  • BdUpload
  • DownAce
  • Fichier
  • FileCloud
  • Filerio
  • FilesCdn
  • IndiShare
  • Kbagi
  • Turbobit
  • UpToBox
  • Uppit

SolidFiles: Part1, Part2
ZippyShare: Part1, Part2
HashesCRC32: 2D419577, MD5: 9B1AE8DCCAA370FBD1BF3C83D7DDB975, SHA1: C58377FF5046C3399B2CFB10D835520E10F1B1C6, SHA256: FF4A64B81CB3E8A188B644937C26F69ED1AE5B49C6927B2E01774A2E45F6EB30, ED2K: F91F38D16CF4A4826C080899061F9C69
Screenshots
screenshotscreenshotscreenshotscreenshotscreenshot
Additional Info
General
Unique ID                                : 70631595061239436067328685459854446902 (0x35232680468170E4F9A53B887C21D136)
Complete name                            : Inspector Gadget - Episode 01 [Gary Owens Pilot Dub] [DVD-REMUX].mkv
Format                                   : Matroska
Format version                           : Version 4
File size                                : 838 MiB
Duration                                 : 22 min 35 s
Overall bit rate mode                    : Variable
Overall bit rate                         : 5 187 kb/s
Movie name                               : Inspector Gadget: Episode 1 - Winter Olympics (December 4, 1982)
Encoded date                             : UTC 2021-01-12 01:15:44
Writing application                      : mkvmerge v20.0.0 ('I Am The Sun') 64-bit
Writing library                          : libebml v1.3.5 + libmatroska v1.4.8

Video
ID                                       : 1
Format                                   : MPEG Video
Format version                           : Version 2
Format profile                           : Main@Main
Format settings                          : CustomMatrix / BVOP
Format settings, BVOP                    : Yes
Format settings, Matrix                  : Custom
Format settings, GOP                     : M=3, N=12
Format settings, picture structure       : Frame
Codec ID                                 : V_MPEG2
Codec ID/Info                            : MPEG 1 or 2 Video
Duration                                 : 22 min 35 s
Bit rate mode                            : Variable
Bit rate                                 : 4 993 kb/s
Maximum bit rate                         : 8 260 kb/s
Width                                    : 720 pixels
Height                                   : 576 pixels
Display aspect ratio                     : 4:3
Frame rate mode                          : Constant
Frame rate                               : 25.000 FPS
Standard                                 : PAL
Color space                              : YUV
Chroma subsampling                       : 4:2:0
Bit depth                                : 8 bits
Scan type                                : Interlaced
Scan order                               : Top Field First
Compression mode                         : Lossy
Bits/(Pixel*Frame)                       : 0.482
Time code of first frame                 : 01:00:00:00
Time code source                         : Group of pictures header
GOP, Open/Closed                         : Open
GOP, Open/Closed of first frame          : Closed
Stream size                              : 806 MiB (96%)
Language                                 : English
Default                                  : Yes
Forced                                   : No
Color range                              : Limited

Audio
ID                                       : 2
Format                                   : AC-3
Format/Info                              : Audio Coding 3
Commercial name                          : Dolby Digital
Codec ID                                 : A_AC3
Duration                                 : 22 min 34 s
Bit rate mode                            : Constant
Bit rate                                 : 192 kb/s
Channel(s)                               : 2 channels
Channel layout                           : L R
Sampling rate                            : 48.0 kHz
Frame rate                               : 31.250 FPS (1536 SPF)
Bit depth                                : 16 bits
Compression mode                         : Lossy
Stream size                              : 31.0 MiB (4%)
Title                                    : Gary Owens [Pilot Dub]
Language                                 : English
Service kind                             : Complete Main
Default                                  : Yes
Forced                                   : No
beta
Anime DDL+NZB mirror
Current Time: 27/02/2021 03:08



About/FAQs