Hunter.X.Hunter.2011.S03E53.Fake.x.and.x.Psyche.1080p.NF.WEB-DL.AAC2.0.H.264-ZigZag.mkv


File Size1.043 GB (1,119,379,484 bytes)
DownloadClickNUpload | GoFile | MdiaLoad
DownloadGG: Part1, Part2
KrakenFiles: Part1, Part2
MultiUp: Part1
  • BdUpload
  • DownAce
  • Fichier
  • FileCloud
  • Filerio
  • FilesCdn
  • IndiShare
  • Kbagi
  • Turbobit
  • UpToBox
  • Uppit
, Part2
  • BdUpload
  • DownAce
  • Fichier
  • FileCloud
  • Filerio
  • FilesCdn
  • IndiShare
  • Kbagi
  • Turbobit
  • UpToBox
  • Uppit
, Part3
  • BdUpload
  • DownAce
  • Fichier
  • FileCloud
  • Filerio
  • FilesCdn
  • IndiShare
  • Kbagi
  • Turbobit
  • UpToBox
  • Uppit
HashesCRC32: C7D46E8A, MD5: C5E41A3B9D2461E712A4F1DFF3B6B06C, SHA1: 725B1686844431D9BF94B01C0612C2D67149CDBD, SHA256: 8C9712266D9DD1C73CA5842FA4552497586D5E748D730906EEE4A4ACC9F406DB, ED2K: FCF1AD86EECE9D5D928D6EACBA693BEA
Screenshots
screenshotscreenshotscreenshotscreenshotscreenshot
SubtitlesAll Attachments | Latin American [spa, SRT], Latin American (Forced) [spa, SRT], Latin American (SDH) [spa, SRT], eng [SRT], Forced [eng, SRT], SDH [eng, SRT], Brazilian [por, SRT], Brazilian (Forced) [por, SRT], Brazilian (SDH) [por, SRT]
Additional Info
General
Unique ID                                : 106166292920569686217230837356293025963 (0x4FDEE25EFF18FFA175213B374C4070AB)
Complete name                            : Hunter.X.Hunter.2011.S03E53.Fake.x.and.x.Psyche.1080p.NF.WEB-DL.AAC2.0.H.264-ZigZag.mkv
Format                                   : Matroska
Format version                           : Version 4
File size                                : 1.04 GiB
Duration                                 : 23 min 52 s
Overall bit rate mode                    : Variable
Overall bit rate                         : 6 253 kb/s
Encoded date                             : UTC 2023-09-29 01:45:26
Writing application                      : ZigZag Muxer v1.1 (definetely not renamed mkvmerge)
Writing library                          : libmatroska v1.7.1

Video
ID                                       : 1
Format                                   : AVC
Format/Info                              : Advanced Video Codec
Format profile                           : Main@L4
Format settings                          : CABAC / 3 Ref Frames
Format settings, CABAC                   : Yes
Format settings, Reference frames        : 3 frames
Codec ID                                 : V_MPEG4/ISO/AVC
Duration                                 : 23 min 52 s
Bit rate mode                            : Variable
Bit rate                                 : 5 800 kb/s
Maximum bit rate                         : 8 700 kb/s
Width                                    : 1 920 pixels
Height                                   : 1 080 pixels
Display aspect ratio                     : 16:9
Frame rate mode                          : Constant
Frame rate                               : 23.976 (24000/1001) FPS
Color space                              : YUV
Chroma subsampling                       : 4:2:0
Bit depth                                : 8 bits
Scan type                                : Progressive
Bits/(Pixel*Frame)                       : 0.117
Stream size                              : 979 MiB (92%)
Writing library                          : x264 core 148 r2727 7d026e8
Encoding settings                        : cabac=1 / ref=3 / deblock=1:0:0 / analyse=0x1:0x111 / me=umh / subme=10 / psy=1 / psy_rd=1.00:0.00 / mixed_ref=1 / me_range=24 / chroma_me=1 / trellis=2 / 8x8dct=0 / cqm=0 / deadzone=21,11 / fast_pskip=1 / chroma_qp_offset=-2 / threads=6 / lookahead_threads=1 / sliced_threads=0 / nr=0 / decimate=1 / interlaced=0 / bluray_compat=0 / stitchable=1 / constrained_intra=0 / bframes=2 / b_pyramid=0 / b_adapt=2 / b_bias=0 / direct=3 / weightb=1 / open_gop=0 / weightp=2 / keyint=240 / keyint_min=121 / scenecut=0 / intra_refresh=0 / rc_lookahead=48 / rc=2pass / mbtree=1 / bitrate=5800 / ratetol=1.0 / qcomp=0.50 / qpmin=6 / qpmax=51 / qpstep=4 / cplxblur=20.0 / qblur=0.5 / vbv_maxrate=8700 / vbv_bufsize=11600 / nal_hrd=vbr / filler=0 / ip_ratio=1.40 / aq=1:1.00
Default                                  : Yes
Forced                                   : No

Audio #1
ID                                       : 2
Format                                   : AAC LC SBR
Format/Info                              : Advanced Audio Codec Low Complexity with Spectral Band Replication
Commercial name                          : HE-AAC
Format settings                          : Explicit
Codec ID                                 : A_AAC-2
Duration                                 : 23 min 52 s
Bit rate                                 : 128 kb/s
Channel(s)                               : 2 channels
Channel layout                           : L R
Sampling rate                            : 48.0 kHz
Frame rate                               : 23.438 FPS (2048 SPF)
Compression mode                         : Lossy
Stream size                              : 21.9 MiB (2%)
Title                                    : Latin American
Language                                 : Spanish
Default                                  : Yes
Forced                                   : No

Audio #2
ID                                       : 3
Format                                   : AAC LC SBR
Format/Info                              : Advanced Audio Codec Low Complexity with Spectral Band Replication
Commercial name                          : HE-AAC
Format settings                          : Explicit
Codec ID                                 : A_AAC-2
Duration                                 : 23 min 52 s
Bit rate                                 : 128 kb/s
Channel(s)                               : 2 channels
Channel layout                           : L R
Sampling rate                            : 48.0 kHz
Frame rate                               : 23.438 FPS (2048 SPF)
Compression mode                         : Lossy
Stream size                              : 21.9 MiB (2%)
Language                                 : English
Default                                  : No
Forced                                   : No

Audio #3
ID                                       : 4
Format                                   : AAC LC SBR
Format/Info                              : Advanced Audio Codec Low Complexity with Spectral Band Replication
Commercial name                          : HE-AAC
Format settings                          : Explicit
Codec ID                                 : A_AAC-2
Duration                                 : 23 min 52 s
Bit rate                                 : 128 kb/s
Channel(s)                               : 2 channels
Channel layout                           : L R
Sampling rate                            : 48.0 kHz
Frame rate                               : 23.438 FPS (2048 SPF)
Compression mode                         : Lossy
Stream size                              : 21.9 MiB (2%)
Language                                 : Japanese
Default                                  : No
Forced                                   : No

Audio #4
ID                                       : 5
Format                                   : AAC LC SBR
Format/Info                              : Advanced Audio Codec Low Complexity with Spectral Band Replication
Commercial name                          : HE-AAC
Format settings                          : Explicit
Codec ID                                 : A_AAC-2
Duration                                 : 23 min 52 s
Bit rate                                 : 128 kb/s
Channel(s)                               : 2 channels
Channel layout                           : L R
Sampling rate                            : 48.0 kHz
Frame rate                               : 23.438 FPS (2048 SPF)
Compression mode                         : Lossy
Stream size                              : 21.9 MiB (2%)
Title                                    : Brazilian
Language                                 : Portuguese
Default                                  : No
Forced                                   : No

Text #1
ID                                       : 6
Format                                   : UTF-8
Codec ID                                 : S_TEXT/UTF8
Codec ID/Info                            : UTF-8 Plain Text
Duration                                 : 23 min 27 s
Bit rate                                 : 58 b/s
Count of elements                        : 223
Stream size                              : 10.1 KiB (0%)
Title                                    : Latin American
Language                                 : Spanish
Default                                  : No
Forced                                   : No

Text #2
ID                                       : 7
Format                                   : UTF-8
Codec ID                                 : S_TEXT/UTF8
Codec ID/Info                            : UTF-8 Plain Text
Duration                                 : 20 min 13 s
Bit rate                                 : 2 b/s
Count of elements                        : 10
Stream size                              : 392 Bytes (0%)
Title                                    : Latin American (Forced)
Language                                 : Spanish
Default                                  : No
Forced                                   : Yes

Text #3
ID                                       : 8
Format                                   : UTF-8
Codec ID                                 : S_TEXT/UTF8
Codec ID/Info                            : UTF-8 Plain Text
Duration                                 : 23 min 30 s
Bit rate                                 : 74 b/s
Count of elements                        : 421
Stream size                              : 12.9 KiB (0%)
Title                                    : Latin American (SDH)
Language                                 : Spanish
Default                                  : No
Forced                                   : No

Text #4
ID                                       : 9
Format                                   : UTF-8
Codec ID                                 : S_TEXT/UTF8
Codec ID/Info                            : UTF-8 Plain Text
Duration                                 : 23 min 28 s
Bit rate                                 : 56 b/s
Count of elements                        : 317
Stream size                              : 9.76 KiB (0%)
Language                                 : English
Default                                  : No
Forced                                   : No

Text #5
ID                                       : 10
Format                                   : UTF-8
Codec ID                                 : S_TEXT/UTF8
Codec ID/Info                            : UTF-8 Plain Text
Duration                                 : 21 min 48 s
Bit rate                                 : 0 b/s
Count of elements                        : 5
Stream size                              : 140 Bytes (0%)
Title                                    : Forced
Language                                 : English
Default                                  : No
Forced                                   : Yes

Text #6
ID                                       : 11
Format                                   : UTF-8
Codec ID                                 : S_TEXT/UTF8
Codec ID/Info                            : UTF-8 Plain Text
Duration                                 : 23 min 26 s
Bit rate                                 : 73 b/s
Count of elements                        : 327
Stream size                              : 12.6 KiB (0%)
Title                                    : SDH
Language                                 : English
Default                                  : No
Forced                                   : No

Text #7
ID                                       : 12
Format                                   : UTF-8
Codec ID                                 : S_TEXT/UTF8
Codec ID/Info                            : UTF-8 Plain Text
Duration                                 : 23 min 27 s
Bit rate                                 : 63 b/s
Count of elements                        : 344
Stream size                              : 10.9 KiB (0%)
Title                                    : Brazilian
Language                                 : Portuguese
Default                                  : No
Forced                                   : No

Text #8
ID                                       : 13
Format                                   : UTF-8
Codec ID                                 : S_TEXT/UTF8
Codec ID/Info                            : UTF-8 Plain Text
Duration                                 : 13 min 5 s
Bit rate                                 : 0 b/s
Count of elements                        : 2
Stream size                              : 54.0 Bytes (0%)
Title                                    : Brazilian (Forced)
Language                                 : Portuguese
Default                                  : No
Forced                                   : Yes

Text #9
ID                                       : 14
Format                                   : UTF-8
Codec ID                                 : S_TEXT/UTF8
Codec ID/Info                            : UTF-8 Plain Text
Duration                                 : 23 min 30 s
Bit rate                                 : 82 b/s
Count of elements                        : 445
Stream size                              : 14.2 KiB (0%)
Title                                    : Brazilian (SDH)
Language                                 : Portuguese
Default                                  : No
Forced                                   : No

Menu
00:00:00.000                             : en:Recap / en:Content
00:00:22.793                             : en:Content
00:00:24.837                             : en:Intro
00:01:42.247                             : en:Content
00:23:17.000                             : en:Credits

Other Files in this Torrent
Hunter.X.Hunter.2011.S03E53.Fake.x.and.x.Psyche.1080p.NF.WEB-DL.AAC2.0.H.264-ZigZag.mkv
beta
Anime DDL+NZB mirror
Current Time: 29/05/2024 21:43



About/FAQs

Discord