Hunter.X.Hunter.2011.S03E52.Assault.x.and.x.Impact.1080p.NF.WEB-DL.AAC2.0.H.264-ZigZag.mkv


File Size1.036 GB (1,112,374,788 bytes)
DownloadClickNUpload | GoFile | MdiaLoad
DownloadGG: Part1, Part2
KrakenFiles: Part1, Part2
MultiUp: Part1
  • BdUpload
  • DownAce
  • Fichier
  • FileCloud
  • Filerio
  • FilesCdn
  • IndiShare
  • Kbagi
  • Turbobit
  • UpToBox
  • Uppit
, Part2
  • BdUpload
  • DownAce
  • Fichier
  • FileCloud
  • Filerio
  • FilesCdn
  • IndiShare
  • Kbagi
  • Turbobit
  • UpToBox
  • Uppit
, Part3
  • BdUpload
  • DownAce
  • Fichier
  • FileCloud
  • Filerio
  • FilesCdn
  • IndiShare
  • Kbagi
  • Turbobit
  • UpToBox
  • Uppit
HashesCRC32: 17BC7EAB, MD5: B043D017A28EC42BFAB495611EB86157, SHA1: E5B6DB59F61EB55A10E4FA3B04C1AB1DA6DDE391, SHA256: D8401AEF15B8BEFA13A1B85DFA315E02629910B84B257BD572F6E27242E67CA3, ED2K: 1CEFC12AE9E15267CB31940168B7AD37
Screenshots
screenshotscreenshotscreenshotscreenshotscreenshot
SubtitlesAll Attachments | Latin American [spa, SRT], Latin American (Forced) [spa, SRT], Latin American (SDH) [spa, SRT], eng [SRT], Forced [eng, SRT], SDH [eng, SRT], Brazilian [por, SRT], Brazilian (Forced) [por, SRT], Brazilian (SDH) [por, SRT]
Additional Info
General
Unique ID                                : 66770836684616529142634897013877698462 (0x323B986AB5D345A9D0D48EB48F3AEF9E)
Complete name                            : Hunter.X.Hunter.2011.S03E52.Assault.x.and.x.Impact.1080p.NF.WEB-DL.AAC2.0.H.264-ZigZag.mkv
Format                                   : Matroska
Format version                           : Version 4
File size                                : 1.04 GiB
Duration                                 : 23 min 40 s
Overall bit rate mode                    : Variable
Overall bit rate                         : 6 263 kb/s
Encoded date                             : UTC 2023-09-29 01:43:00
Writing application                      : ZigZag Muxer v1.1 (definetely not renamed mkvmerge)
Writing library                          : libmatroska v1.7.1

Video
ID                                       : 1
Format                                   : AVC
Format/Info                              : Advanced Video Codec
Format profile                           : Main@L4
Format settings                          : CABAC / 3 Ref Frames
Format settings, CABAC                   : Yes
Format settings, Reference frames        : 3 frames
Codec ID                                 : V_MPEG4/ISO/AVC
Duration                                 : 23 min 40 s
Bit rate mode                            : Variable
Bit rate                                 : 5 800 kb/s
Maximum bit rate                         : 8 700 kb/s
Width                                    : 1 920 pixels
Height                                   : 1 080 pixels
Display aspect ratio                     : 16:9
Frame rate mode                          : Constant
Frame rate                               : 23.976 (24000/1001) FPS
Color space                              : YUV
Chroma subsampling                       : 4:2:0
Bit depth                                : 8 bits
Scan type                                : Progressive
Bits/(Pixel*Frame)                       : 0.117
Stream size                              : 973 MiB (92%)
Writing library                          : x264 core 148 r2727 7d026e8
Encoding settings                        : cabac=1 / ref=3 / deblock=1:0:0 / analyse=0x1:0x111 / me=umh / subme=10 / psy=1 / psy_rd=1.00:0.00 / mixed_ref=1 / me_range=24 / chroma_me=1 / trellis=2 / 8x8dct=0 / cqm=0 / deadzone=21,11 / fast_pskip=1 / chroma_qp_offset=-2 / threads=6 / lookahead_threads=1 / sliced_threads=0 / nr=0 / decimate=1 / interlaced=0 / bluray_compat=0 / stitchable=1 / constrained_intra=0 / bframes=2 / b_pyramid=0 / b_adapt=2 / b_bias=0 / direct=3 / weightb=1 / open_gop=0 / weightp=2 / keyint=240 / keyint_min=121 / scenecut=0 / intra_refresh=0 / rc_lookahead=48 / rc=2pass / mbtree=1 / bitrate=5800 / ratetol=1.0 / qcomp=0.50 / qpmin=6 / qpmax=51 / qpstep=4 / cplxblur=20.0 / qblur=0.5 / vbv_maxrate=8700 / vbv_bufsize=11600 / nal_hrd=vbr / filler=0 / ip_ratio=1.40 / aq=1:1.00
Default                                  : Yes
Forced                                   : No

Audio #1
ID                                       : 2
Format                                   : AAC LC SBR
Format/Info                              : Advanced Audio Codec Low Complexity with Spectral Band Replication
Commercial name                          : HE-AAC
Format settings                          : Explicit
Codec ID                                 : A_AAC-2
Duration                                 : 23 min 40 s
Bit rate                                 : 128 kb/s
Channel(s)                               : 2 channels
Channel layout                           : L R
Sampling rate                            : 48.0 kHz
Frame rate                               : 23.438 FPS (2048 SPF)
Compression mode                         : Lossy
Stream size                              : 21.7 MiB (2%)
Title                                    : Latin American
Language                                 : Spanish
Default                                  : Yes
Forced                                   : No

Audio #2
ID                                       : 3
Format                                   : AAC LC SBR
Format/Info                              : Advanced Audio Codec Low Complexity with Spectral Band Replication
Commercial name                          : HE-AAC
Format settings                          : Explicit
Codec ID                                 : A_AAC-2
Duration                                 : 23 min 40 s
Bit rate                                 : 128 kb/s
Channel(s)                               : 2 channels
Channel layout                           : L R
Sampling rate                            : 48.0 kHz
Frame rate                               : 23.438 FPS (2048 SPF)
Compression mode                         : Lossy
Stream size                              : 21.7 MiB (2%)
Language                                 : English
Default                                  : No
Forced                                   : No

Audio #3
ID                                       : 4
Format                                   : AAC LC SBR
Format/Info                              : Advanced Audio Codec Low Complexity with Spectral Band Replication
Commercial name                          : HE-AAC
Format settings                          : Explicit
Codec ID                                 : A_AAC-2
Duration                                 : 23 min 40 s
Bit rate                                 : 128 kb/s
Channel(s)                               : 2 channels
Channel layout                           : L R
Sampling rate                            : 48.0 kHz
Frame rate                               : 23.438 FPS (2048 SPF)
Compression mode                         : Lossy
Stream size                              : 21.7 MiB (2%)
Language                                 : Japanese
Default                                  : No
Forced                                   : No

Audio #4
ID                                       : 5
Format                                   : AAC LC SBR
Format/Info                              : Advanced Audio Codec Low Complexity with Spectral Band Replication
Commercial name                          : HE-AAC
Format settings                          : Explicit
Codec ID                                 : A_AAC-2
Duration                                 : 23 min 40 s
Bit rate                                 : 128 kb/s
Channel(s)                               : 2 channels
Channel layout                           : L R
Sampling rate                            : 48.0 kHz
Frame rate                               : 23.438 FPS (2048 SPF)
Compression mode                         : Lossy
Stream size                              : 21.7 MiB (2%)
Title                                    : Brazilian
Language                                 : Portuguese
Default                                  : No
Forced                                   : No

Text #1
ID                                       : 6
Format                                   : UTF-8
Codec ID                                 : S_TEXT/UTF8
Codec ID/Info                            : UTF-8 Plain Text
Duration                                 : 23 min 12 s
Bit rate                                 : 61 b/s
Count of elements                        : 217
Stream size                              : 10.5 KiB (0%)
Title                                    : Latin American
Language                                 : Spanish
Default                                  : No
Forced                                   : No

Text #2
ID                                       : 7
Format                                   : UTF-8
Codec ID                                 : S_TEXT/UTF8
Codec ID/Info                            : UTF-8 Plain Text
Duration                                 : 4 min 52 s
Bit rate                                 : 3 b/s
Count of elements                        : 4
Stream size                              : 130 Bytes (0%)
Title                                    : Latin American (Forced)
Language                                 : Spanish
Default                                  : No
Forced                                   : Yes

Text #3
ID                                       : 8
Format                                   : UTF-8
Codec ID                                 : S_TEXT/UTF8
Codec ID/Info                            : UTF-8 Plain Text
Duration                                 : 23 min 22 s
Bit rate                                 : 71 b/s
Count of elements                        : 311
Stream size                              : 12.2 KiB (0%)
Title                                    : Latin American (SDH)
Language                                 : Spanish
Default                                  : No
Forced                                   : No

Text #4
ID                                       : 9
Format                                   : UTF-8
Codec ID                                 : S_TEXT/UTF8
Codec ID/Info                            : UTF-8 Plain Text
Duration                                 : 23 min 14 s
Bit rate                                 : 61 b/s
Count of elements                        : 291
Stream size                              : 10.4 KiB (0%)
Language                                 : English
Default                                  : No
Forced                                   : No

Text #5
ID                                       : 10
Format                                   : UTF-8
Codec ID                                 : S_TEXT/UTF8
Codec ID/Info                            : UTF-8 Plain Text
Duration                                 : 21 min 29 s
Bit rate                                 : 0 b/s
Count of elements                        : 5
Stream size                              : 155 Bytes (0%)
Title                                    : Forced
Language                                 : English
Default                                  : No
Forced                                   : Yes

Text #6
ID                                       : 11
Format                                   : UTF-8
Codec ID                                 : S_TEXT/UTF8
Codec ID/Info                            : UTF-8 Plain Text
Duration                                 : 23 min 16 s
Bit rate                                 : 74 b/s
Count of elements                        : 302
Stream size                              : 12.7 KiB (0%)
Title                                    : SDH
Language                                 : English
Default                                  : No
Forced                                   : No

Text #7
ID                                       : 12
Format                                   : UTF-8
Codec ID                                 : S_TEXT/UTF8
Codec ID/Info                            : UTF-8 Plain Text
Duration                                 : 23 min 12 s
Bit rate                                 : 63 b/s
Count of elements                        : 307
Stream size                              : 10.8 KiB (0%)
Title                                    : Brazilian
Language                                 : Portuguese
Default                                  : No
Forced                                   : No

Text #8
ID                                       : 13
Format                                   : UTF-8
Codec ID                                 : S_TEXT/UTF8
Codec ID/Info                            : UTF-8 Plain Text
Duration                                 : 4 min 52 s
Bit rate                                 : 1 b/s
Count of elements                        : 4
Stream size                              : 60.0 Bytes (0%)
Title                                    : Brazilian (Forced)
Language                                 : Portuguese
Default                                  : No
Forced                                   : Yes

Text #9
ID                                       : 14
Format                                   : UTF-8
Codec ID                                 : S_TEXT/UTF8
Codec ID/Info                            : UTF-8 Plain Text
Duration                                 : 23 min 22 s
Bit rate                                 : 82 b/s
Count of elements                        : 423
Stream size                              : 14.2 KiB (0%)
Title                                    : Brazilian (SDH)
Language                                 : Portuguese
Default                                  : No
Forced                                   : No

Menu
00:00:00.000                             : en:Recap / en:Content
00:00:34.680                             : en:Content
00:00:36.724                             : en:Intro
00:01:54.343                             : en:Content
00:23:10.000                             : en:Credits

Other Files in this Torrent
Hunter.X.Hunter.2011.S03E52.Assault.x.and.x.Impact.1080p.NF.WEB-DL.AAC2.0.H.264-ZigZag.mkv
beta
Anime DDL+NZB mirror
Current Time: 13/06/2024 08:11



About/FAQs

Discord