File Size902.9 MB (946,777,531 bytes)
DownloadClickNUpload | DropAPK
MultiUp: Part1
  • BdUpload
  • DownAce
  • Fichier
  • FileCloud
  • Filerio
  • FilesCdn
  • IndiShare
  • Kbagi
  • Turbobit
  • UpToBox
  • Uppit
, Part2
  • BdUpload
  • DownAce
  • Fichier
  • FileCloud
  • Filerio
  • FilesCdn
  • IndiShare
  • Kbagi
  • Turbobit
  • UpToBox
  • Uppit

SolidFiles: Part1, Part2
ZippyShare: Part1, Part2
HashesCRC32: FCD54C47, MD5: 6559DD8D4D5344D88DA46332FA3E772C, SHA1: 77D2316CDE805692AC97237881780AD3FCFDFF31, SHA256: 7BCD7D9686D8271F574AA82309FBFE74A678142552118D8EC0426F72565C7BDA, ED2K: 92E2688B52F3730B9E37F22BD8AA1EAD
Screenshots
screenshotscreenshotscreenshotscreenshotscreenshot
Additional Info
General
Complete name                            : [Golumpa] Bottom-Tier Character Tomozaki - 10 (Jaku-Chara Tomozaki-kun) [FuniDub 1080p x264 AAC] [FCD54C47].mkv
Format                                   : Matroska
Format version                           : Version 4
File size                                : 903 MiB
Duration                                 : 23 min 47 s
Overall bit rate                         : 5 307 kb/s
Writing application                      : https://www.youtube.com/watch?v=moZtoMP7HAA
Writing library                          : https://www.youtube.com/watch?v=HacIoKjzCZs

Video
ID                                       : 1
Format                                   : AVC
Format/Info                              : Advanced Video Codec
Format profile                           : Main@L4
Format settings                          : CABAC / 4 Ref Frames
Format settings, CABAC                   : Yes
Format settings, ReFrames                : 4 frames
Codec ID                                 : V_MPEG4/ISO/AVC
Duration                                 : 23 min 47 s
Bit rate                                 : 5 049 kb/s
Width                                    : 1 920 pixels
Height                                   : 1 080 pixels
Display aspect ratio                     : 16:9
Frame rate mode                          : Constant
Frame rate                               : 23.976 (24000/1001) FPS
Color space                              : YUV
Chroma subsampling                       : 4:2:0
Bit depth                                : 8 bits
Scan type                                : Progressive
Bits/(Pixel*Frame)                       : 0.102
Stream size                              : 859 MiB (95%)
Title                                    : Funimation WEB-DL
Default                                  : Yes
Forced                                   : No
Color range                              : Limited
Matrix coefficients                      : BT.709

Audio
ID                                       : 2
Format                                   : AAC LC
Format/Info                              : Advanced Audio Codec Low Complexity
Codec ID                                 : A_AAC-2
Duration                                 : 23 min 47 s
Bit rate                                 : 256 kb/s
Channel(s)                               : 2 channels
Channel layout                           : L R
Sampling rate                            : 48.0 kHz
Frame rate                               : 46.875 FPS (1024 SPF)
Compression mode                         : Lossy
Stream size                              : 43.6 MiB (5%)
Title                                    : English Dub
Language                                 : English
Default                                  : Yes
Forced                                   : No
beta
Anime DDL+NZB mirror
Current Time: 03/12/2021 13:01



About/FAQs

Discord