[Glue] Mob Psycho 100 - 06 [BD 720p][9D3C27D1].mkv


File Size532.4 MB (558,240,236 bytes)
DownloadClickNUpload | Go4Up | Jheberg | MultiUp
  • ClickNupload
  • Fichier
  • Filerio
  • Free
  • Fufox
  • HugeFiles
  • Mightyupload
  • ToutBox
  • Turbobit
  • UpToBox
  • Uplea
  • UploadBaz
  • Uploadable
  • Uploaded
  • Uppit
  • Userscloud
| OpenLoad
Sendspace: Part1, Part2
SolidFiles: Part1, Part2
HashesCRC32: 9D3C27D1, MD5: B9954CFAA467B0B16B6335ACC3D5ACD8, SHA1: 5DB01A8EF869DFA10CBF1F1CD4F4F09A70BA3ED8, SHA256: F6510215CF25332489AD9C4E41659F3CC898125ED7D7233EC2B0424C78035F71, ED2K: BB0CF85A30DE16AFF2E22484F87462A1
Screenshots
screenshotscreenshotscreenshotscreenshotscreenshot
SubtitlesAll Attachments | eng [ASS]
Additional Info
General
Unique ID                                : 218548622024295953665755456368400701423 (0xA46AEEFCE0D53DFAB63EF991DD3897EF)
Complete name                            : [Glue] Mob Psycho 100 - 06 [BD 720p][9D3C27D1].mkv
Format                                   : Matroska
Format version                           : Version 4 / Version 2
File size                                : 532 MiB
Duration                                 : 24 min 11 s
Overall bit rate                         : 3 078 kb/s
Encoded date                             : UTC 2017-08-26 22:08:49
Writing application                      : mkvmerge v9.9.0 ('Pick Up') 32bit
Writing library                          : libebml v1.3.4 + libmatroska v1.4.5
Attachments                              : Aero Matics Bold.ttf / ARCENA.ttf / Brush Strokes_1.ttf / ChalkDust.ttf / Clearface SSi Bold.ttf / Discognate.otf / Hand Of Sean Pro.otf / Hira v8_0.ttf / montara-gothic-webfont.ttf / RaysHand-Regular.ttf

Video
ID                                       : 1
Format                                   : AVC
Format/Info                              : Advanced Video Codec
Format profile                           : High 4:4:4 Predictive@L5
Format settings, CABAC                   : Yes
Format settings, ReFrames                : 16 frames
Codec ID                                 : V_MPEG4/ISO/AVC
Duration                                 : 24 min 10 s
Bit rate                                 : 2 749 kb/s
Width                                    : 1 280 pixels
Height                                   : 720 pixels
Display aspect ratio                     : 16:9
Frame rate mode                          : Constant
Frame rate                               : 23.976 (24000/1001) FPS
Color space                              : YUV
Chroma subsampling                       : 4:4:4
Bit depth                                : 10 bits
Scan type                                : Progressive
Bits/(Pixel*Frame)                       : 0.124
Stream size                              : 475 MiB (89%)
Writing library                          : x264 core 148 r2638+53 bb29004 t_mod_Custom [10-bit@all X86_64]
Encoding settings                        : cabac=1 / ref=16 / deblock=1:0:0 / analyse=0x3:0x133 / me=umh / subme=10 / psy=1 / fade_compensate=0.72 / psy_rd=0.75:0.05 / mixed_ref=1 / me_range=24 / chroma_me=1 / trellis=2 / 8x8dct=1 / cqm=0 / deadzone=21,11 / fast_pskip=1 / chroma_qp_offset=3 / threads=12 / lookahead_threads=3 / sliced_threads=0 / nr=0 / decimate=1 / interlaced=0 / bluray_compat=0 / constrained_intra=0 / fgo=0 / bframes=10 / b_pyramid=2 / b_adapt=2 / b_bias=0 / direct=1 / weightb=1 / open_gop=0 / weightp=2 / keyint=250 / keyint_min=23 / scenecut=40 / intra_refresh=0 / rc_lookahead=60 / rc=crf / mbtree=1 / crf=15.0000 / qcomp=0.72 / qpmin=0:0:0 / qpmax=81:81:81 / qpstep=4 / ip_ratio=1.40 / aq=3:0.80 / aq-sensitivity=10.00 / aq-factor=1.00:1.00:1.00 / aq2=0 / aq3=0
Language                                 : Japanese
Default                                  : Yes
Forced                                   : No

Audio
ID                                       : 2
Format                                   : AAC
Format/Info                              : Advanced Audio Codec
Format profile                           : LC
Codec ID                                 : A_AAC
Duration                                 : 24 min 11 s
Bit rate                                 : 320 kb/s
Channel(s)                               : 2 channels
Channel positions                        : Front: L R
Sampling rate                            : 48.0 kHz
Frame rate                               : 46.875 FPS (1024 spf)
Compression mode                         : Lossy
Stream size                              : 55.4 MiB (10%)
Language                                 : Japanese
Default                                  : Yes
Forced                                   : No

Text
ID                                       : 3
Format                                   : ASS
Codec ID                                 : S_TEXT/ASS
Codec ID/Info                            : Advanced Sub Station Alpha
Duration                                 : 24 min 8 s
Bit rate                                 : 1 441 b/s
Count of elements                        : 2183
Compression mode                         : Lossless
Stream size                              : 255 KiB (0%)
Language                                 : English
Default                                  : Yes
Forced                                   : No

Menu
00:00:00.033                             : en:Intro
00:00:35.010                             : en:OP
00:02:04.970                             : en:Part A
00:10:48.040                             : en:Part B
00:22:25.030                             : en:ED
00:23:54.990                             : en:Preview

Other Files in this Torrent
[Glue] Mob Psycho 100 - 06 [BD 720p][9D3C27D1].mkv
beta
Anime DDL+NZB mirror
Current Time: 22/04/2024 06:13



About/FAQs

Discord