[Glue] Mob Psycho 100 - 05 [BD 720p][0A80425A].mkv


File Size464.1 MB (486,695,477 bytes)
DownloadClickNUpload | Go4Up | Jheberg | MultiUp
  • ClickNupload
  • Fichier
  • Filerio
  • Free
  • Fufox
  • HugeFiles
  • Mightyupload
  • ToutBox
  • Turbobit
  • UpToBox
  • Uplea
  • UploadBaz
  • Uploadable
  • Uploaded
  • Uppit
  • Userscloud
| OpenLoad | SolidFiles
Sendspace: Part1, Part2
HashesCRC32: 0A80425A, MD5: 50880B99DEF51C850EDA0CD117A7B317, SHA1: E4740F0B6565267774D8BA04133C5849A62CF238, SHA256: 4932B7B10EBEA3AA496A76401DBAEEC246EBD0111E5A171A345568EC52180B3C, ED2K: B4712217B554B8C4AAF3F2B1E0E589D4
Screenshots
screenshotscreenshotscreenshotscreenshotscreenshot
SubtitlesAll Attachments | eng [ASS]
Additional Info
General
Unique ID                                : 206841217441458894650223239353916944602 (0x9B9C2B607237F5CF97492080DEC370DA)
Complete name                            : [Glue] Mob Psycho 100 - 05 [BD 720p][0A80425A].mkv
Format                                   : Matroska
Format version                           : Version 4 / Version 2
File size                                : 464 MiB
Duration                                 : 24 min 12 s
Overall bit rate                         : 2 681 kb/s
Encoded date                             : UTC 2017-08-26 20:36:18
Writing application                      : mkvmerge v9.9.0 ('Pick Up') 32bit
Writing library                          : libebml v1.3.4 + libmatroska v1.4.5
Attachments                              : Aero Matics Bold.ttf / ARCENA.ttf / Clearface SSi Bold.ttf / Discognate.otf / montara-gothic-webfont.ttf / RaysHand-Regular.ttf

Video
ID                                       : 1
Format                                   : AVC
Format/Info                              : Advanced Video Codec
Format profile                           : High 4:4:4 Predictive@L5
Format settings, CABAC                   : Yes
Format settings, ReFrames                : 16 frames
Codec ID                                 : V_MPEG4/ISO/AVC
Duration                                 : 24 min 10 s
Bit rate                                 : 2 360 kb/s
Width                                    : 1 280 pixels
Height                                   : 720 pixels
Display aspect ratio                     : 16:9
Frame rate mode                          : Constant
Frame rate                               : 23.976 (24000/1001) FPS
Color space                              : YUV
Chroma subsampling                       : 4:4:4
Bit depth                                : 10 bits
Scan type                                : Progressive
Bits/(Pixel*Frame)                       : 0.107
Stream size                              : 408 MiB (88%)
Writing library                          : x264 core 148 r2638+53 bb29004 t_mod_Custom [10-bit@all X86_64]
Encoding settings                        : cabac=1 / ref=16 / deblock=1:0:0 / analyse=0x3:0x133 / me=umh / subme=10 / psy=1 / fade_compensate=0.72 / psy_rd=0.75:0.05 / mixed_ref=1 / me_range=24 / chroma_me=1 / trellis=2 / 8x8dct=1 / cqm=0 / deadzone=21,11 / fast_pskip=1 / chroma_qp_offset=3 / threads=12 / lookahead_threads=3 / sliced_threads=0 / nr=0 / decimate=1 / interlaced=0 / bluray_compat=0 / constrained_intra=0 / fgo=0 / bframes=10 / b_pyramid=2 / b_adapt=2 / b_bias=0 / direct=1 / weightb=1 / open_gop=0 / weightp=2 / keyint=250 / keyint_min=23 / scenecut=40 / intra_refresh=0 / rc_lookahead=60 / rc=crf / mbtree=1 / crf=15.0000 / qcomp=0.72 / qpmin=0:0:0 / qpmax=81:81:81 / qpstep=4 / ip_ratio=1.40 / aq=3:0.80 / aq-sensitivity=10.00 / aq-factor=1.00:1.00:1.00 / aq2=0 / aq3=0
Language                                 : Japanese
Default                                  : Yes
Forced                                   : No

Audio
ID                                       : 2
Format                                   : AAC
Format/Info                              : Advanced Audio Codec
Format profile                           : LC
Codec ID                                 : A_AAC
Duration                                 : 24 min 12 s
Bit rate                                 : 320 kb/s
Channel(s)                               : 2 channels
Channel positions                        : Front: L R
Sampling rate                            : 48.0 kHz
Frame rate                               : 46.875 FPS (1024 spf)
Compression mode                         : Lossy
Stream size                              : 55.4 MiB (12%)
Language                                 : Japanese
Default                                  : Yes
Forced                                   : No

Text
ID                                       : 3
Format                                   : ASS
Codec ID                                 : S_TEXT/ASS
Codec ID/Info                            : Advanced Sub Station Alpha
Duration                                 : 24 min 12 s
Bit rate                                 : 292 b/s
Count of elements                        : 587
Compression mode                         : Lossless
Stream size                              : 51.8 KiB (0%)
Language                                 : English
Default                                  : Yes
Forced                                   : No

Menu
00:00:00.033                             : en:Intro
00:00:42.020                             : en:OP
00:02:11.990                             : en:Part A
00:10:26.020                             : en:Part B
00:22:25.030                             : en:ED
00:23:54.990                             : en:Preview

Other Files in this Torrent
[Glue] Mob Psycho 100 - 05 [BD 720p][0A80425A].mkv
beta
Anime DDL+NZB mirror
Current Time: 26/02/2024 21:44



About/FAQs

Discord