[GJM] One Punch Man S2 - 02 (BD 1080p) [3F1F97F0].mkv


File Size1.218 GB (1,307,689,615 bytes)
DownloadClickNUpload | Jheberg
MultiUp: Part1
  • BdUpload
  • DownAce
  • Fichier
  • FileCloud
  • Filerio
  • FilesCdn
  • IndiShare
  • Kbagi
  • Turbobit
  • UpToBox
  • Uppit
, Part2
  • BdUpload
  • DownAce
  • Fichier
  • FileCloud
  • Filerio
  • FilesCdn
  • IndiShare
  • Kbagi
  • Turbobit
  • UpToBox
  • Uppit
, Part3
  • BdUpload
  • DownAce
  • Fichier
  • FileCloud
  • Filerio
  • FilesCdn
  • IndiShare
  • Kbagi
  • Turbobit
  • UpToBox
  • Uppit

Sendspace: Part1, Part2, Part3, Part4, Part5
SolidFiles: Part1, Part2, Part3
ZippyShare: Part1, Part2, Part3
HashesCRC32: 3F1F97F0, MD5: 892E9E96840A0FC7A5DA4E8F3D5D9715, SHA1: AD9E0132120BB5D49EA37D0E6B4EE30EE2C0A483, SHA256: 44DFA4DD2287DB51F21B4D588E604C1FE4C14979D7BC792AA2121C5B1F81D907, ED2K: F6344CF8D23F1DE62D86B869DAE79DEA
Screenshots
screenshotscreenshotscreenshotscreenshotscreenshot
SubtitlesAll Attachments | No Honorifics [eng, ASS]
Additional Info
General
Unique ID                                : 39715046095865961797353580976651807906 (0x1DE0D6F36CDE22F4E549931BD29EACA2)
Complete name                            : [GJM] One Punch Man S2 - 02 (BD 1080p) [3F1F97F0].mkv
Format                                   : Matroska
Format version                           : Version 4
File size                                : 1.22 GiB
Duration                                 : 23 min 50 s
Overall bit rate                         : 7 316 kb/s
Encoded date                             : UTC 2019-11-13 06:56:33
Writing application                      : mkvmerge v40.0.0 ('Old Town Road + Pony') 32-bit
Writing library                          : libebml v1.3.9 + libmatroska v1.5.2
Attachments                              : COMICBOOK.TTF / CRACKEDJOHNNIE.TTF / FRANCHISE-BOLD.TTF / GANDHISANS-BOLD.OTF / GANDHISANS-BOLDITALIC.OTF / JANEROE-BOLD.TTF / MALVIE.OTF / MASTERBREAKER.TTF / PEUNABRUSH-REGULAR.OTF / QUICKSAND-REGULAR.TTF / XANGDASHINY.TTF / ALBATROSS.TTF / AVER-BOLD.TTF / AWESOMESAUCEDEMO-REGULAR.OTF / CITYBURN.TTF

Video
ID                                       : 1
Format                                   : AVC
Format/Info                              : Advanced Video Codec
Format profile                           : High 10@L5.1
Format settings                          : CABAC / 16 Ref Frames
Format settings, CABAC                   : Yes
Format settings, ReFrames                : 16 frames
Codec ID                                 : V_MPEG4/ISO/AVC
Duration                                 : 23 min 50 s
Bit rate                                 : 7 029 kb/s
Width                                    : 1 920 pixels
Height                                   : 1 080 pixels
Display aspect ratio                     : 16:9
Frame rate mode                          : Constant
Frame rate                               : 23.976 (24000/1001) FPS
Color space                              : YUV
Chroma subsampling                       : 4:2:0
Bit depth                                : 10 bits
Scan type                                : Progressive
Bits/(Pixel*Frame)                       : 0.141
Stream size                              : 1.17 GiB (96%)
Writing library                          : x264 core 155 r2893 b00bcaf
Encoding settings                        : cabac=1 / ref=16 / deblock=1:-2:-2 / analyse=0x3:0x113 / me=umh / subme=10 / psy=1 / psy_rd=0.80:0.00 / mixed_ref=1 / me_range=32 / chroma_me=1 / trellis=2 / 8x8dct=1 / cqm=0 / deadzone=21,11 / fast_pskip=0 / chroma_qp_offset=-2 / threads=24 / lookahead_threads=6 / sliced_threads=0 / nr=0 / decimate=0 / interlaced=0 / bluray_compat=0 / constrained_intra=0 / bframes=16 / b_pyramid=2 / b_adapt=2 / b_bias=0 / direct=3 / weightb=1 / open_gop=0 / weightp=2 / keyint=240 / keyint_min=23 / scenecut=40 / intra_refresh=0 / rc_lookahead=48 / rc=crf / mbtree=1 / crf=16.0 / qcomp=0.70 / qpmin=0 / qpmax=81 / qpstep=4 / ip_ratio=1.40 / aq=3:0.90
Language                                 : Japanese
Default                                  : Yes
Forced                                   : No
Color range                              : Limited
Matrix coefficients                      : BT.709

Audio
ID                                       : 2
Format                                   : AAC LC
Format/Info                              : Advanced Audio Codec Low Complexity
Codec ID                                 : A_AAC-2
Duration                                 : 23 min 50 s
Bit rate                                 : 265 kb/s
Channel(s)                               : 2 channels
Channel layout                           : L R
Sampling rate                            : 48.0 kHz
Frame rate                               : 46.875 FPS (1024 SPF)
Compression mode                         : Lossy
Stream size                              : 45.3 MiB (4%)
Language                                 : Japanese
Default                                  : Yes
Forced                                   : No

Text
ID                                       : 3
Format                                   : ASS
Codec ID                                 : S_TEXT/ASS
Codec ID/Info                            : Advanced Sub Station Alpha
Duration                                 : 23 min 49 s
Bit rate                                 : 2 140 b/s
Count of elements                        : 2586
Compression mode                         : Lossless
Stream size                              : 374 KiB (0%)
Title                                    : No Honorifics
Language                                 : English
Default                                  : Yes
Forced                                   : No

Menu
00:00:00.000                             : en:Prologue
00:03:40.470                             : en:OP
00:05:09.976                             : en:Main Episode
00:20:23.013                             : en:ED
00:21:53.020                             : en:Epilogue
00:23:45.007                             : en:Preview

Other Files in this Torrent
[GJM] One Punch Man S2 - 02 (BD 1080p) [3F1F97F0].mkv
beta
Anime DDL+NZB mirror
Current Time: 19/05/2024 17:38



About/FAQs

Discord