File Size700.2 MB (734,206,580 bytes)
DownloadClickNUpload | DailyUploads | DownloadGG | GoFile | KrakenFiles | MdiaLoad | Uppit
MultiUp: Part1
  • BdUpload
  • DownAce
  • Fichier
  • FileCloud
  • Filerio
  • FilesCdn
  • IndiShare
  • Kbagi
  • Turbobit
  • UpToBox
  • Uppit
, Part2
  • BdUpload
  • DownAce
  • Fichier
  • FileCloud
  • Filerio
  • FilesCdn
  • IndiShare
  • Kbagi
  • Turbobit
  • UpToBox
  • Uppit
HashesCRC32: 8941FB1E, MD5: CD8D84747BFB6B4ADBE14459C75E853A, SHA1: 0421F27069A2D5E0A5E5565E69FDD07C3313FEEC, SHA256: 7242D089FD58D0A754069F2E97C4FD25600975058F0F91E57FEDEFEAC513EC3D, ED2K: 8E8DBE73812AF7580EA7765744661529
Screenshots
screenshotscreenshotscreenshotscreenshotscreenshot
SubtitlesAll Attachments | eng [SRT], ind [SRT], tha [SRT], vie [SRT], may [SRT], chi [SRT]
Additional Info
General
Unique ID                                : 34688062737592113310891323976864821526 (0x1A18AD8925074C6265FE0EEAEC88F116)
Complete name                            : [GbR] Blue Lock - 04 [2160p H.265].mkv
Format                                   : Matroska
Format version                           : Version 4
File size                                : 700 MiB
Duration                                 : 23 min 52 s
Overall bit rate                         : 4 101 kb/s
Frame rate                               : 23.976 FPS
Movie name                               : Blue Lock
Description                              : GbR
Encoded date                             : 2023-11-23 07:16:21 UTC
Writing application                      : mkvmerge v80.0 ('Roundabout') 64-bit
Writing library                          : libebml v1.4.4 + libmatroska v1.7.1
Cover                                    : Yes
Attachments                              : cover.jpg

Video
ID                                       : 1
Format                                   : HEVC
Format/Info                              : High Efficiency Video Coding
Format profile                           : Main@L5.1@Main
Codec ID                                 : V_MPEGH/ISO/HEVC
Duration                                 : 23 min 52 s
Bit rate                                 : 4 051 kb/s
Width                                    : 3 840 pixels
Height                                   : 2 160 pixels
Display aspect ratio                     : 16:9
Frame rate mode                          : Constant
Frame rate                               : 23.976 (24000/1001) FPS
Original frame rate                      : 23.976 (23976/1000) FPS
Color space                              : YUV
Chroma subsampling                       : 4:2:0
Bit depth                                : 8 bits
Bits/(Pixel*Frame)                       : 0.020
Stream size                              : 692 MiB (99%)
Default                                  : Yes
Forced                                   : No
Color range                              : Limited
Color primaries                          : BT.709
Transfer characteristics                 : BT.709
Matrix coefficients                      : BT.709

Audio
ID                                       : 2
Format                                   : AAC LC SBR
Format/Info                              : Advanced Audio Codec Low Complexity with Spectral Band Replication
Commercial name                          : HE-AAC
Format settings                          : NBC
Codec ID                                 : A_AAC-5
Duration                                 : 23 min 52 s
Bit rate                                 : 42.0 kb/s
Channel(s)                               : 2 channels
Channel layout                           : L R
Sampling rate                            : 48.0 kHz
Frame rate                               : 23.438 FPS (2048 SPF)
Compression mode                         : Lossy
Delay relative to video                  : 42 ms
Stream size                              : 7.17 MiB (1%)
Language                                 : Japanese
Default                                  : Yes
Forced                                   : No

Text #1
ID                                       : 3
Format                                   : UTF-8
Codec ID                                 : S_TEXT/UTF8
Codec ID/Info                            : UTF-8 Plain Text
Duration                                 : 23 min 29 s
Bit rate                                 : 77 b/s
Frame rate                               : 0.281 FPS
Count of elements                        : 396
Stream size                              : 13.3 KiB (0%)
Language                                 : English
Default                                  : Yes
Forced                                   : No

Text #2
ID                                       : 4
Format                                   : UTF-8
Codec ID                                 : S_TEXT/UTF8
Codec ID/Info                            : UTF-8 Plain Text
Duration                                 : 23 min 29 s
Bit rate                                 : 90 b/s
Frame rate                               : 0.294 FPS
Count of elements                        : 415
Stream size                              : 15.5 KiB (0%)
Language                                 : Indonesian
Default                                  : Yes
Forced                                   : No

Text #3
ID                                       : 5
Format                                   : UTF-8
Codec ID                                 : S_TEXT/UTF8
Codec ID/Info                            : UTF-8 Plain Text
Duration                                 : 23 min 31 s
Bit rate                                 : 228 b/s
Frame rate                               : 0.306 FPS
Count of elements                        : 432
Stream size                              : 39.3 KiB (0%)
Language                                 : Thai
Default                                  : Yes
Forced                                   : No

Text #4
ID                                       : 6
Format                                   : UTF-8
Codec ID                                 : S_TEXT/UTF8
Codec ID/Info                            : UTF-8 Plain Text
Duration                                 : 23 min 30 s
Bit rate                                 : 115 b/s
Frame rate                               : 0.314 FPS
Count of elements                        : 443
Stream size                              : 19.9 KiB (0%)
Language                                 : Vietnamese
Default                                  : Yes
Forced                                   : No

Text #5
ID                                       : 7
Format                                   : UTF-8
Codec ID                                 : S_TEXT/UTF8
Codec ID/Info                            : UTF-8 Plain Text
Duration                                 : 23 min 29 s
Bit rate                                 : 79 b/s
Frame rate                               : 0.281 FPS
Count of elements                        : 396
Stream size                              : 13.7 KiB (0%)
Language                                 : Malay
Default                                  : Yes
Forced                                   : No

Text #6
ID                                       : 8
Format                                   : UTF-8
Codec ID                                 : S_TEXT/UTF8
Codec ID/Info                            : UTF-8 Plain Text
Duration                                 : 23 min 29 s
Bit rate                                 : 63 b/s
Frame rate                               : 0.295 FPS
Count of elements                        : 416
Stream size                              : 10.9 KiB (0%)
Language                                 : Chinese
Default                                  : Yes
Forced                                   : No
beta
Anime DDL+NZB mirror
Current Time: 20/07/2024 21:44



About/FAQs

Discord