[FreakCrSuBuS] Netojuu no Susume - 08 [1080].mkv


File Size821.7 MB (861,586,979 bytes)
DownloadClickNUpload | Jheberg | MultiUp | OpenLoad | Upfile.mobi
Sendspace: Part1, Part2, Part3
SolidFiles: Part1, Part2
HashesCRC32: 45B64B52, MD5: 5F9D45854B2FBED01D73E624A77D6EC8, SHA1: AFC874D72F28056DEBC9ED2C8022891A1FE695AC, SHA256: D7C7FF42AFBF204A060BF2489E81C093CD91F34AC0FD60EE9B455F2109949B62, ED2K: A1EF40DC69FBABCD87250DA7123AB045
Screenshots
screenshotscreenshotscreenshotscreenshotscreenshot
SubtitlesAll Attachments | eng [ASS], arabic [und, ASS]
Additional Info
General
Unique ID                                : 177613943688210625268974610895432913887 (0x859F33865D35074B9D24211B2BD113DF)
Complete name                            : [FreakCrSuBuS] Netojuu no Susume - 08 [1080].mkv
Format                                   : Matroska
Format version                           : Version 4 / Version 2
File size                                : 822 MiB
Duration                                 : 23 min 40 s
Overall bit rate                         : 4 853 kb/s
Encoded date                             : UTC 2017-11-24 16:10:11
Writing application                      : mkvmerge v17.0.0 ('Be Ur Friend') 32-bit
Writing library                          : libebml v1.3.5 + libmatroska v1.4.8

Video
ID                                       : 3
Format                                   : AVC
Format/Info                              : Advanced Video Codec
Format profile                           : High@L4
Format settings, CABAC                   : Yes
Format settings, ReFrames                : 4 frames
Codec ID                                 : V_MPEG4/ISO/AVC
Duration                                 : 23 min 40 s
Bit rate                                 : 4 724 kb/s
Width                                    : 1 920 pixels
Height                                   : 1 080 pixels
Display aspect ratio                     : 16:9
Frame rate mode                          : Variable
Frame rate                               : 23.815 FPS
Color space                              : YUV
Chroma subsampling                       : 4:2:0
Bit depth                                : 8 bits
Scan type                                : Progressive
Bits/(Pixel*Frame)                       : 0.096
Stream size                              : 800 MiB (97%)
Writing library                          : x264 core 142
Encoding settings                        : cabac=1 / ref=4 / deblock=1:1:1 / analyse=0x3:0x113 / me=umh / subme=8 / psy=1 / psy_rd=0.40:0.00 / mixed_ref=1 / me_range=16 / chroma_me=1 / trellis=1 / 8x8dct=1 / cqm=0 / deadzone=21,11 / fast_pskip=1 / chroma_qp_offset=-2 / threads=12 / lookahead_threads=2 / sliced_threads=0 / nr=0 / decimate=1 / interlaced=0 / bluray_compat=0 / constrained_intra=0 / bframes=3 / b_pyramid=2 / b_adapt=2 / b_bias=0 / direct=3 / weightb=1 / open_gop=0 / weightp=2 / keyint=48 / keyint_min=24 / scenecut=40 / intra_refresh=0 / rc_lookahead=48 / rc=crf / mbtree=1 / crf=15.0 / qcomp=0.60 / qpmin=0 / qpmax=69 / qpstep=4 / vbv_maxrate=8000 / vbv_bufsize=12000 / crf_max=0.0 / nal_hrd=none / filler=0 / ip_ratio=1.40 / aq=1:0.60
Default                                  : Yes
Forced                                   : No

Audio
ID                                       : 4
Format                                   : AAC
Format/Info                              : Advanced Audio Codec
Format profile                           : LC
Codec ID                                 : A_AAC
Duration                                 : 23 min 40 s
Bit rate                                 : 127 kb/s
Channel(s)                               : 2 channels
Channel positions                        : Front: L R
Sampling rate                            : 44.1 kHz
Frame rate                               : 43.066 FPS (1024 spf)
Compression mode                         : Lossy
Delay relative to video                  : -83 ms
Stream size                              : 21.5 MiB (3%)
Default                                  : Yes
Forced                                   : No

Text #1
ID                                       : 1
Format                                   : ASS
Codec ID                                 : S_TEXT/ASS
Codec ID/Info                            : Advanced Sub Station Alpha
Duration                                 : 22 min 9 s
Bit rate                                 : 152 b/s
Count of elements                        : 356
Compression mode                         : Lossless
Stream size                              : 24.7 KiB (0%)
Language                                 : English
Default                                  : Yes
Forced                                   : No

Text #2
ID                                       : 2
Format                                   : ASS
Codec ID                                 : S_TEXT/ASS
Codec ID/Info                            : Advanced Sub Station Alpha
Duration                                 : 22 min 9 s
Bit rate                                 : 181 b/s
Count of elements                        : 354
Compression mode                         : Lossless
Stream size                              : 29.4 KiB (0%)
Title                                    : arabic
Default                                  : No
Forced                                   : No

Other Files in this Torrent
[FreakCrSuBuS] Netojuu no Susume - 08 [1080].mkv
beta
Anime DDL+NZB mirror
Current Time: 18/05/2024 09:55



About/FAQs

Discord