[FreakCrSuBuS] Netojuu no Susume - 07 [1080].mkv


File Size830.7 MB (871,058,009 bytes)
DownloadClickNUpload | Jheberg | MultiUp | OpenLoad | Upfile.mobi
Sendspace: Part1, Part2, Part3
SolidFiles: Part1, Part2
HashesCRC32: 3010545A, MD5: 4332A1BF419A3B7CC7606CA7351639BE, SHA1: 7931E465E3A2BA2A2F6D4EDEA55A0BFF803DC154, SHA256: 0FF002B7422841D95B43EB5C9998AC7258D31EDC36C6BB837233C12CCEC41C63, ED2K: 97CC09934F9EC02B4C28877E7FEDAD65
Screenshots
screenshotscreenshotscreenshotscreenshotscreenshot
SubtitlesAll Attachments | eng [ASS], arabic [und, ASS]
Additional Info
General
Unique ID                                : 209785588128034431373828194771648297465 (0x9DD33C0F3F80B0FAAA62EC6ED702B9F9)
Complete name                            : [FreakCrSuBuS] Netojuu no Susume - 07 [1080].mkv
Format                                   : Matroska
Format version                           : Version 4 / Version 2
File size                                : 831 MiB
Duration                                 : 23 min 40 s
Overall bit rate                         : 4 907 kb/s
Encoded date                             : UTC 2017-11-17 17:28:54
Writing application                      : mkvmerge v17.0.0 ('Be Ur Friend') 32-bit
Writing library                          : libebml v1.3.5 + libmatroska v1.4.8

Video
ID                                       : 3
Format                                   : AVC
Format/Info                              : Advanced Video Codec
Format profile                           : High@L4
Format settings, CABAC                   : Yes
Format settings, ReFrames                : 4 frames
Codec ID                                 : V_MPEG4/ISO/AVC
Duration                                 : 23 min 40 s
Bit rate                                 : 4 776 kb/s
Width                                    : 1 920 pixels
Height                                   : 1 080 pixels
Display aspect ratio                     : 16:9
Frame rate mode                          : Constant
Frame rate                               : 23.976 (24000/1001) FPS
Color space                              : YUV
Chroma subsampling                       : 4:2:0
Bit depth                                : 8 bits
Scan type                                : Progressive
Bits/(Pixel*Frame)                       : 0.096
Stream size                              : 809 MiB (97%)
Writing library                          : x264 core 142
Encoding settings                        : cabac=1 / ref=4 / deblock=1:1:1 / analyse=0x3:0x113 / me=umh / subme=8 / psy=1 / psy_rd=0.40:0.00 / mixed_ref=1 / me_range=16 / chroma_me=1 / trellis=1 / 8x8dct=1 / cqm=0 / deadzone=21,11 / fast_pskip=1 / chroma_qp_offset=-2 / threads=12 / lookahead_threads=2 / sliced_threads=0 / nr=0 / decimate=1 / interlaced=0 / bluray_compat=0 / constrained_intra=0 / bframes=3 / b_pyramid=2 / b_adapt=2 / b_bias=0 / direct=3 / weightb=1 / open_gop=0 / weightp=2 / keyint=48 / keyint_min=24 / scenecut=40 / intra_refresh=0 / rc_lookahead=48 / rc=crf / mbtree=1 / crf=15.0 / qcomp=0.60 / qpmin=0 / qpmax=69 / qpstep=4 / vbv_maxrate=8000 / vbv_bufsize=12000 / crf_max=0.0 / nal_hrd=none / filler=0 / ip_ratio=1.40 / aq=1:0.60
Default                                  : Yes
Forced                                   : No

Audio
ID                                       : 4
Format                                   : AAC
Format/Info                              : Advanced Audio Codec
Format profile                           : LC
Codec ID                                 : A_AAC
Duration                                 : 23 min 40 s
Bit rate                                 : 128 kb/s
Channel(s)                               : 2 channels
Channel positions                        : Front: L R
Sampling rate                            : 44.1 kHz
Frame rate                               : 43.066 FPS (1024 spf)
Compression mode                         : Lossy
Delay relative to video                  : -83 ms
Stream size                              : 21.7 MiB (3%)
Default                                  : Yes
Forced                                   : No

Text #1
ID                                       : 1
Format                                   : ASS
Codec ID                                 : S_TEXT/ASS
Codec ID/Info                            : Advanced Sub Station Alpha
Duration                                 : 22 min 9 s
Bit rate                                 : 191 b/s
Count of elements                        : 390
Compression mode                         : Lossless
Stream size                              : 31.2 KiB (0%)
Language                                 : English
Default                                  : Yes
Forced                                   : No

Text #2
ID                                       : 2
Format                                   : ASS
Codec ID                                 : S_TEXT/ASS
Codec ID/Info                            : Advanced Sub Station Alpha
Duration                                 : 22 min 9 s
Bit rate                                 : 216 b/s
Count of elements                        : 383
Compression mode                         : Lossless
Stream size                              : 35.2 KiB (0%)
Title                                    : arabic
Default                                  : No
Forced                                   : No

Other Files in this Torrent
[FreakCrSuBuS] Netojuu no Susume - 07 [1080].mkv
beta
Anime DDL+NZB mirror
Current Time: 18/05/2024 10:34



About/FAQs

Discord