File Size690.8 MB (724,402,176 bytes)
DownloadJheberg | MultiUp | UsersFiles
Go4Up: Part1, Part2
Sendspace: Part1, Part2, Part3
ShareBeast: Part1, Part2, Part3, Part4
SolidFiles: Part1, Part2
HashesCRC32: 12348076, MD5: 4A603AE70028D850A9CA65806A810079, SHA1: 1CC80573D367D3B82B80F9E9E7D89525BEA739C3, SHA256: A4C069C461A01CE3E4452249FE38C442ED88390EC25BC6E113726573D330C1CD, ED2K: A50074B2280ED773CA8D5E8ABDD43288
Screenshots
screenshotscreenshotscreenshotscreenshotscreenshot
Additional Info
General
Complete name                            : [Filb]_Pokemon_4Ever_-_Celebi_-_A_Timeless_Encounter_[SUB][12348076].avi
Format                                   : AVI
Format/Info                              : Audio Video Interleave
File size                                : 691 MiB
Duration                                 : 1h 15mn
Overall bit rate                         : 1 277 Kbps
Director                                 : Filb (#free_pokemon on DALnet) - http://www.filb.de
Writing application                      : Nandub v1.0rc2
Writing library                          : Nandub build 1853/release
Comment                                  : Japanese Version (for ShareReactor)

Video
ID                                       : 0
Format                                   : MPEG-4 Visual
Format settings, BVOP                    : Yes
Format settings, QPel                    : No
Format settings, GMC                     : No warppoints
Format settings, Matrix                  : Default (H.263)
Codec ID                                 : DIVX
Codec ID/Info                            : Project Mayo
Codec ID/Hint                            : DivX 4
Duration                                 : 1h 15mn
Bit rate                                 : 1 136 Kbps
Width                                    : 512 pixels
Height                                   : 280 pixels
Display aspect ratio                     : 1.85:1
Frame rate                               : 29.970 fps
Color space                              : YUV
Chroma subsampling                       : 4:2:0
Bit depth                                : 8 bits
Scan type                                : Progressive
Compression mode                         : Lossy
Bits/(Pixel*Frame)                       : 0.264
Stream size                              : 614 MiB (89%)

Audio
ID                                       : 1
Format                                   : MPEG Audio
Format version                           : Version 1
Format profile                           : Layer 3
Mode                                     : Joint stereo
Mode extension                           : MS Stereo
Codec ID                                 : 55
Codec ID/Hint                            : MP3
Duration                                 : 1h 15mn
Bit rate mode                            : Constant
Bit rate                                 : 128 Kbps
Channel(s)                               : 2 channels
Sampling rate                            : 44.1 KHz
Compression mode                         : Lossy
Stream size                              : 69.3 MiB (10%)
Alignment                                : Aligned on interleaves
Interleave, duration                     : 26 ms (0.78 video frame)
Interleave, preload duration             : 496 ms
beta
Anime DDL+NZB mirror
Current Time: 13/07/2024 19:07



About/FAQs

Discord