File Size132.2 MB (138,640,953 bytes)
DownloadAnonFiles | ClickNUpload | DownloadGG | DropAPK | MultiUp
  • BdUpload
  • DownAce
  • Fichier
  • FileCloud
  • Filerio
  • FilesCdn
  • IndiShare
  • Kbagi
  • Turbobit
  • UpToBox
  • Uppit
| SolidFiles | ZippyShare
HashesCRC32: 3B4B8BFC, MD5: ED79608C704EC86ADEEBB91AE1FA3BFA, SHA1: FD591A02D79DA646F1298B8A0E0364406F7E09D3, SHA256: 678A74E7C52673A7B2AB27D28B47D1726CD0D04F0EB3E67670C51B1BDF480BB6, ED2K: FA2885D9581DC32EB00CE6D348AB1EDB
Screenshots
screenshotscreenshotscreenshotscreenshotscreenshot
SubtitlesAll Attachments | Weeb Gakuin [eng, ASS]
Additional Info
General
Unique ID                                : 278459252281070367466249803867363531633 (0xD17D4D1D2551DAFC3AF421B5C320DB71)
Complete name                            : [DB]Jaku-Chara Tomozaki-kun_-_OVA1_(10bit_BD1080p_x265).mkv
Format                                   : Matroska
Format version                           : Version 4
File size                                : 132 MiB
Duration                                 : 11 min 49 s
Overall bit rate                         : 1 564 kb/s
Encoded date                             : UTC 2021-06-25 18:21:04
Writing application                      : mkvmerge v49.0.0 ('Sick Of Losing Soulmates') 64-bit
Writing library                          : libebml v1.4.0 + libmatroska v1.6.1
Cover                                    : Yes
Attachments                              : Tin Doghouse italic.ttf / Tin Doghouse.ttf / Minecraftia-Regular.ttf / cover.jpg

Video
ID                                       : 1
Format                                   : HEVC
Format/Info                              : High Efficiency Video Coding
Format profile                           : Main 10@L4@Main
Codec ID                                 : V_MPEGH/ISO/HEVC
Duration                                 : 11 min 49 s
Bit rate                                 : 1 415 kb/s
Width                                    : 1 920 pixels
Height                                   : 1 080 pixels
Display aspect ratio                     : 16:9
Frame rate mode                          : Constant
Frame rate                               : 23.976 (24000/1001) FPS
Color space                              : YUV
Chroma subsampling                       : 4:2:0
Bit depth                                : 10 bits
Bits/(Pixel*Frame)                       : 0.028
Stream size                              : 120 MiB (90%)
Writing library                          : x265 3.4+6-g73f96ff39:[Windows][GCC 11.0.0][64 bit] 10bit
Encoding settings                        : cpuid=1049583 / frame-threads=3 / numa-pools=8 / wpp / no-pmode / no-pme / no-psnr / no-ssim / log-level=2 / input-csp=1 / input-res=1920x1080 / interlace=0 / total-frames=17000 / level-idc=0 / high-tier=1 / uhd-bd=0 / ref=4 / no-allow-non-conformance / no-repeat-headers / annexb / no-aud / no-hrd / info / hash=0 / no-temporal-layers / open-gop / min-keyint=23 / keyint=250 / gop-lookahead=0 / bframes=4 / b-adapt=2 / b-pyramid / bframe-bias=0 / rc-lookahead=25 / lookahead-slices=4 / scenecut=40 / hist-scenecut=0 / radl=0 / no-splice / no-intra-refresh / ctu=64 / min-cu-size=8 / rect / no-amp / max-tu-size=32 / tu-inter-depth=1 / tu-intra-depth=1 / limit-tu=0 / rdoq-level=2 / dynamic-rd=0.00 / no-ssim-rd / signhide / no-tskip / nr-intra=0 / nr-inter=0 / no-constrained-intra / strong-intra-smoothing / max-merge=3 / limit-refs=3 / limit-modes / me=3 / subme=3 / merange=57 / temporal-mvp / no-frame-dup / no-hme / weightp / no-weightb / no-analyze-src-pics / deblock=0:0 / sao / no-sao-non-deblock / rd=4 / selective-sao=4 / no-early-skip / rskip / no-fast-intra / no-tskip-fast / no-cu-lossless / no-b-intra / no-splitrd-skip / rdpenalty=0 / psy-rd=1.00 / psy-rdoq=1.00 / no-rd-refine / no-lossless / cbqpoffs=0 / crqpoffs=0 / rc=crf / crf=20.0 / qcomp=0.60 / qpstep=4 / stats-write=0 / stats-read=0 / ipratio=1.40 / pbratio=1.30 / aq-mode=3 / aq-strength=1.00 / cutree / zone-count=0 / no-strict-cbr / qg-size=32 / no-rc-grain / qpmax=69 / qpmin=0 / no-const-vbv / sar=0 / overscan=0 / videoformat=5 / range=0 / colorprim=2 / transfer=2 / colormatrix=2 / chromaloc=0 / display-window=0 / cll=0,0 / min-luma=0 / max-luma=1023 / log2-max-poc-lsb=8 / vui-timing-info / vui-hrd-info / slices=1 / no-opt-qp-pps / no-opt-ref-list-length-pps / no-multi-pass-opt-rps / scenecut-bias=0.05 / hist-threshold=0.01 / no-opt-cu-delta-qp / no-aq-motion / no-hdr10 / no-hdr10-opt / no-dhdr10-opt / no-idr-recovery-sei / analysis-reuse-level=0 / analysis-save-reuse-level=0 / analysis-load-reuse-level=0 / scale-factor=0 / refine-intra=0 / refine-inter=0 / refine-mv=1 / refine-ctu-distortion=0 / no-limit-sao / ctu-info=0 / no-lowpass-dct / refine-analysis-type=0 / copy-pic=1 / max-ausize-factor=1.0 / no-dynamic-refine / no-single-sei / no-hevc-aq / no-svt / no-field / qp-adaptation-range=1.00 / no-scenecut-aware-qpconformance-window-offsets / right=0 / bottom=0 / decoder-max-rate=0
Default                                  : Yes
Forced                                   : No

Audio
ID                                       : 2
Format                                   : AAC LC
Format/Info                              : Advanced Audio Codec Low Complexity
Codec ID                                 : A_AAC-2
Duration                                 : 11 min 49 s
Bit rate                                 : 144 kb/s
Channel(s)                               : 2 channels
Channel layout                           : L R
Sampling rate                            : 48.0 kHz
Frame rate                               : 46.875 FPS (1024 SPF)
Compression mode                         : Lossy
Delay relative to video                  : 20 ms
Stream size                              : 12.2 MiB (9%)
Title                                    : Stereo
Language                                 : Japanese
Default                                  : Yes
Forced                                   : No

Text
ID                                       : 3
Format                                   : ASS
Codec ID                                 : S_TEXT/ASS
Codec ID/Info                            : Advanced Sub Station Alpha
Duration                                 : 8 min 45 s
Bit rate                                 : 244 b/s
Count of elements                        : 211
Compression mode                         : Lossless
Stream size                              : 15.7 KiB (0%)
Title                                    : Weeb Gakuin
Language                                 : English
Default                                  : Yes
Forced                                   : No

Menu
00:00:00.000                             : ja:Chapter 01
00:01:30.006                             : ja:Chapter 02
00:10:17.992                             : ja:Chapter 03
00:11:48.040                             : ja:Chapter 04

Other Files in this Torrent
Extra/[DB]Jaku-Chara Tomozaki-kun_-_OVA1_(10bit_BD1080p_x265).mkv
beta
Anime DDL+NZB mirror
Current Time: 04/12/2021 07:04



About/FAQs

Discord