File Size710.3 MB (744,832,814 bytes)
DownloadClickNUpload | DailyUploads | GoFile | KrakenFiles | MdiaLoad | Uppit
MultiUp: Part1
  • BdUpload
  • DownAce
  • Fichier
  • FileCloud
  • Filerio
  • FilesCdn
  • IndiShare
  • Kbagi
  • Turbobit
  • UpToBox
  • Uppit
, Part2
  • BdUpload
  • DownAce
  • Fichier
  • FileCloud
  • Filerio
  • FilesCdn
  • IndiShare
  • Kbagi
  • Turbobit
  • UpToBox
  • Uppit
HashesCRC32: 65956623, MD5: D1B8E1C87066095CC94200128E4C33FB, SHA1: C47CB55C632DCAC90B890CAD3CD6A447C36C773D, SHA256: 52675BAEAD2D4C29DA458D9AFFEC96A84953C697F2C1DF411C1C9D0E3A7A05C8, ED2K: 5AE2C2544DE2E70B09D2E06AEB2EB54B
Screenshots
screenshotscreenshotscreenshotscreenshotscreenshot
SubtitlesAll Attachments | English [eng, ASS], Portuguese(Brazil) [por, ASS], Spanish(Latin_America) [spa, ASS], Spanish [spa, ASS], Arabic [ara, ASS], French [fre, ASS], German [ger, ASS], Italian [ita, ASS], Russian [rus, ASS]
Additional Info
General
Unique ID                                : 304240192348962441649862300559496992970 (0xE4E28798A801B75A98641CEC8A9458CA)
Complete name                            : [Erai-raws] Touken Ranbu Kai - Kyoden Moyuru Honnouji - 07 [720p][Multiple Subtitle][65956623].mkv
Format                                   : Matroska
Format version                           : Version 4
File size                                : 710 MiB
Duration                                 : 23 min 40 s
Overall bit rate                         : 4 195 kb/s
Frame rate                               : 23.976 FPS
Encoded date                             : 2024-05-14 15:35:56 UTC
Writing application                      : mkvmerge v84.0 ('Sleeper') 64-bit
Writing library                          : libebml v1.4.5 + libmatroska v1.7.1
Attachments                              : AdLibBT.ttf / AdLibRg.ttf / arialbd_1.ttf / arialbi_1.ttf / ariali_1.ttf / ARIALNB.TTF / arial_1.ttf / ariblk_1.ttf / balonxb.ttf / BelweBdBTBold.ttf / BRITANIC.TTF / CHILLER.TTF / comicbd_0.ttf / comici_0.ttf / comicz_0.ttf / comic_0.ttf / consolab_0.ttf / COOPBL.ttf / courbd_1.ttf / cour_1.ttf / DejaVuSans-Bold.ttf / DejaVuSansCondensed-Bold.ttf / domcasn.ttf / ebrimabd_0.ttf / Eraser.ttf / FirstGrader.ttf / Freeh471.ttf / FRHND471.TTF / Garamond Bold font.ttf / georgiab_0.ttf / georgiai_0.ttf / georgiaz_0.ttf / georgia_0.ttf / impact_0.ttf / Impress.ttf / JAPAB_.TTF / Rubik-Bold.ttf / Rubik-Light.ttf / Rubik-Regular.ttf / segoeprb_0.ttf / SQR721KN.TTF / SqueakyChalkSound.ttf / STAC222N.TTF / Stacc222.ttf / staccato 555 bt.ttf / Swis721_BT_Bold.ttf / tahomabd_0.ttf / tahoma_1.ttf / timesbd_1.ttf / timesbi_1.ttf / timesi_1.ttf / times_3.ttf / Tonic Regular.ttf / trebucbd_0.ttf / trebucbi_0.ttf / trebucit_0.ttf / trebuc_0.ttf / VAGRoundedBT.ttf / verdanab_0.ttf / verdanaz_0.ttf / verdana_0.ttf / AdobeArabic-Bold.otf / AdobeArabic-BoldItalic.otf / AdobeArabic-Italic.otf / AdobeArabic-Regular.otf

Video
ID                                       : 1
Format                                   : AVC
Format/Info                              : Advanced Video Codec
Format profile                           : High@L4
Format settings                          : CABAC / 6 Ref Frames
Format settings, CABAC                   : Yes
Format settings, Reference frames        : 6 frames
Codec ID                                 : V_MPEG4/ISO/AVC
Duration                                 : 23 min 39 s
Bit rate                                 : 4 000 kb/s
Width                                    : 1 280 pixels
Height                                   : 720 pixels
Display aspect ratio                     : 16:9
Frame rate mode                          : Constant
Frame rate                               : 23.976 (24000/1001) FPS
Color space                              : YUV
Chroma subsampling                       : 4:2:0
Bit depth                                : 8 bits
Scan type                                : Progressive
Bits/(Pixel*Frame)                       : 0.181
Stream size                              : 676 MiB (95%)
Writing library                          : x264 core 164
Encoding settings                        : cabac=1 / ref=6 / deblock=1:1:1 / analyse=0x3:0x113 / me=hex / subme=8 / psy=1 / psy_rd=0.40:0.00 / mixed_ref=1 / me_range=16 / chroma_me=1 / trellis=2 / 8x8dct=1 / cqm=0 / deadzone=21,11 / fast_pskip=1 / chroma_qp_offset=-2 / threads=9 / lookahead_threads=1 / sliced_threads=0 / nr=0 / decimate=1 / interlaced=0 / bluray_compat=0 / constrained_intra=0 / bframes=0 / weightp=2 / keyint=96 / keyint_min=48 / scenecut=40 / intra_refresh=0 / rc_lookahead=48 / rc=2pass / mbtree=1 / bitrate=4000 / ratetol=1.0 / qcomp=0.60 / qpmin=0 / qpmax=69 / qpstep=4 / cplxblur=20.0 / qblur=0.5 / vbv_maxrate=6000 / vbv_bufsize=9000 / nal_hrd=none / filler=0 / ip_ratio=1.40 / aq=1:0.60
Language                                 : Japanese
Default                                  : Yes
Forced                                   : No
Color range                              : Limited
Color primaries                          : BT.709
Transfer characteristics                 : BT.709
Matrix coefficients                      : BT.709

Audio
ID                                       : 2
Format                                   : AAC LC
Format/Info                              : Advanced Audio Codec Low Complexity
Codec ID                                 : A_AAC-2
Duration                                 : 23 min 39 s
Bit rate                                 : 128 kb/s
Channel(s)                               : 2 channels
Channel layout                           : L R
Sampling rate                            : 44.1 kHz
Frame rate                               : 43.066 FPS (1024 SPF)
Compression mode                         : Lossy
Stream size                              : 21.7 MiB (3%)
Language                                 : Japanese
Default                                  : Yes
Forced                                   : No

Text #1
ID                                       : 3
Format                                   : ASS
Codec ID                                 : S_TEXT/ASS
Codec ID/Info                            : Advanced Sub Station Alpha
Duration                                 : 21 min 48 s
Bit rate                                 : 93 b/s
Frame rate                               : 0.170 FPS
Count of elements                        : 223
Compression mode                         : Lossless
Stream size                              : 15.0 KiB (0%)
Title                                    : English
Language                                 : English
Default                                  : Yes
Forced                                   : No

Text #2
ID                                       : 4
Format                                   : ASS
Codec ID                                 : S_TEXT/ASS
Codec ID/Info                            : Advanced Sub Station Alpha
Duration                                 : 21 min 48 s
Bit rate                                 : 98 b/s
Frame rate                               : 0.170 FPS
Count of elements                        : 223
Compression mode                         : Lossless
Stream size                              : 15.7 KiB (0%)
Title                                    : Portuguese(Brazil)
Language                                 : Portuguese
Default                                  : No
Forced                                   : No

Text #3
ID                                       : 5
Format                                   : ASS
Codec ID                                 : S_TEXT/ASS
Codec ID/Info                            : Advanced Sub Station Alpha
Duration                                 : 23 min 19 s
Bit rate                                 : 88 b/s
Frame rate                               : 0.159 FPS
Count of elements                        : 222
Compression mode                         : Lossless
Stream size                              : 15.1 KiB (0%)
Title                                    : Spanish(Latin_America)
Language                                 : Spanish
Default                                  : No
Forced                                   : No

Text #4
ID                                       : 6
Format                                   : ASS
Codec ID                                 : S_TEXT/ASS
Codec ID/Info                            : Advanced Sub Station Alpha
Duration                                 : 23 min 19 s
Bit rate                                 : 88 b/s
Frame rate                               : 0.159 FPS
Count of elements                        : 222
Compression mode                         : Lossless
Stream size                              : 15.2 KiB (0%)
Title                                    : Spanish
Language                                 : Spanish
Default                                  : No
Forced                                   : No

Text #5
ID                                       : 7
Format                                   : ASS
Codec ID                                 : S_TEXT/ASS
Codec ID/Info                            : Advanced Sub Station Alpha
Duration                                 : 21 min 48 s
Bit rate                                 : 111 b/s
Frame rate                               : 0.170 FPS
Count of elements                        : 223
Compression mode                         : Lossless
Stream size                              : 17.8 KiB (0%)
Title                                    : Arabic
Language                                 : Arabic
Default                                  : No
Forced                                   : No

Text #6
ID                                       : 8
Format                                   : ASS
Codec ID                                 : S_TEXT/ASS
Codec ID/Info                            : Advanced Sub Station Alpha
Duration                                 : 23 min 20 s
Bit rate                                 : 104 b/s
Frame rate                               : 0.179 FPS
Count of elements                        : 250
Compression mode                         : Lossless
Stream size                              : 17.8 KiB (0%)
Title                                    : French
Language                                 : French
Default                                  : No
Forced                                   : No

Text #7
ID                                       : 9
Format                                   : ASS
Codec ID                                 : S_TEXT/ASS
Codec ID/Info                            : Advanced Sub Station Alpha
Duration                                 : 22 min 21 s
Bit rate                                 : 104 b/s
Frame rate                               : 0.200 FPS
Count of elements                        : 268
Compression mode                         : Lossless
Stream size                              : 17.1 KiB (0%)
Title                                    : German
Language                                 : German
Default                                  : No
Forced                                   : No

Text #8
ID                                       : 10
Format                                   : ASS
Codec ID                                 : S_TEXT/ASS
Codec ID/Info                            : Advanced Sub Station Alpha
Duration                                 : 21 min 48 s
Bit rate                                 : 100 b/s
Frame rate                               : 0.189 FPS
Count of elements                        : 247
Compression mode                         : Lossless
Stream size                              : 16.1 KiB (0%)
Title                                    : Italian
Language                                 : Italian
Default                                  : No
Forced                                   : No

Text #9
ID                                       : 11
Format                                   : ASS
Codec ID                                 : S_TEXT/ASS
Codec ID/Info                            : Advanced Sub Station Alpha
Duration                                 : 21 min 48 s
Bit rate                                 : 114 b/s
Frame rate                               : 0.170 FPS
Count of elements                        : 223
Compression mode                         : Lossless
Stream size                              : 18.2 KiB (0%)
Title                                    : Russian
Language                                 : Russian
Default                                  : No
Forced                                   : No

Menu
00:00:00.000                             : ja:Prologue
00:01:31.000                             : ja:Opening
00:03:01.000                             : ja:Episode
00:22:10.000                             : ja:Credits Start
00:23:40.000                             : ja:Credits End
beta
Anime DDL+NZB mirror
Current Time: 20/07/2024 03:27



About/FAQs

Discord