[Erai-raws] Net-juu no Susume - 10 END [1080p][Multiple Subtitle].mkv


File Size782.4 MB (820,435,110 bytes)
DownloadClickNUpload | Jheberg | MultiUp | OpenLoad | Upfile.mobi
Sendspace: Part1, Part2, Part3
SolidFiles: Part1, Part2
HashesCRC32: B9E3E9A9, MD5: 7534EB568F669E5CAAB326585A3FA19B, SHA1: C0AAC2D6259D3D5219A55FA0F1290870081068DF, SHA256: 16C44D1392836469CF952519AD5A11FFEECCB0186B9289B66436104DFF36040D, ED2K: 45B11B223D898A340016C6728CEFB1F7
Screenshots
screenshotscreenshotscreenshotscreenshotscreenshot
SubtitlesAll Attachments | English(US) [eng, ASS], Arabic [ara, ASS], Deutsch [ger, ASS], Espaأ±ol(Espaأ±a) [spa, ASS], Espaأ±ol [spa, ASS], Franأ§ais(France) [fre, ASS], Italiano [ita, ASS], Portuguأھs(Brasil) [por, ASS]
Additional Info
General
Unique ID                                : 242621155679118105165499909845682288923 (0xB6872287EAB067488F26E998A4B0F91B)
Complete name                            : [Erai-raws] Net-juu no Susume - 10 END [1080p][Multiple Subtitle].mkv
Format                                   : Matroska
Format version                           : Version 4 / Version 2
File size                                : 782 MiB
Duration                                 : 23 min 25 s
Overall bit rate                         : 4 671 kb/s
Encoded date                             : UTC 2017-12-08 23:11:16
Writing application                      : mkvmerge v12.0.0 ('Trust / Lust') 64bit
Writing library                          : libebml v1.3.4 + libmatroska v1.4.5

Video
ID                                       : 1
Format                                   : AVC
Format/Info                              : Advanced Video Codec
Format profile                           : High@L4
Format settings, CABAC                   : Yes
Format settings, ReFrames                : 4 frames
Codec ID                                 : V_MPEG4/ISO/AVC
Duration                                 : 23 min 25 s
Bit rate                                 : 4 540 kb/s
Width                                    : 1 920 pixels
Height                                   : 1 080 pixels
Display aspect ratio                     : 16:9
Frame rate mode                          : Constant
Frame rate                               : 23.976 (24000/1001) FPS
Color space                              : YUV
Chroma subsampling                       : 4:2:0
Bit depth                                : 8 bits
Scan type                                : Progressive
Bits/(Pixel*Frame)                       : 0.091
Stream size                              : 760 MiB (97%)
Writing library                          : x264 core 142
Encoding settings                        : cabac=1 / ref=4 / deblock=1:1:1 / analyse=0x3:0x113 / me=umh / subme=8 / psy=1 / psy_rd=0.40:0.00 / mixed_ref=1 / me_range=16 / chroma_me=1 / trellis=1 / 8x8dct=1 / cqm=0 / deadzone=21,11 / fast_pskip=1 / chroma_qp_offset=-2 / threads=12 / lookahead_threads=2 / sliced_threads=0 / nr=0 / decimate=1 / interlaced=0 / bluray_compat=0 / constrained_intra=0 / bframes=3 / b_pyramid=2 / b_adapt=2 / b_bias=0 / direct=3 / weightb=1 / open_gop=0 / weightp=2 / keyint=48 / keyint_min=24 / scenecut=40 / intra_refresh=0 / rc_lookahead=48 / rc=crf / mbtree=1 / crf=15.0 / qcomp=0.60 / qpmin=0 / qpmax=69 / qpstep=4 / vbv_maxrate=8000 / vbv_bufsize=12000 / crf_max=0.0 / nal_hrd=none / filler=0 / ip_ratio=1.40 / aq=1:0.60
Default                                  : Yes
Forced                                   : No

Audio
ID                                       : 2
Format                                   : AAC
Format/Info                              : Advanced Audio Codec
Format profile                           : LC
Codec ID                                 : A_AAC
Duration                                 : 23 min 25 s
Bit rate                                 : 128 kb/s
Channel(s)                               : 2 channels
Channel positions                        : Front: L R
Sampling rate                            : 44.1 kHz
Frame rate                               : 43.066 FPS (1024 spf)
Compression mode                         : Lossy
Delay relative to video                  : -83 ms
Stream size                              : 21.4 MiB (3%)
Default                                  : Yes
Forced                                   : No

Text #1
ID                                       : 3
Format                                   : ASS
Codec ID                                 : S_TEXT/ASS
Codec ID/Info                            : Advanced Sub Station Alpha
Duration                                 : 19 min 36 s
Bit rate                                 : 122 b/s
Count of elements                        : 295
Compression mode                         : Lossless
Stream size                              : 17.6 KiB (0%)
Title                                    : English(US)
Language                                 : English
Default                                  : Yes
Forced                                   : No

Text #2
ID                                       : 4
Format                                   : ASS
Codec ID                                 : S_TEXT/ASS
Codec ID/Info                            : Advanced Sub Station Alpha
Duration                                 : 19 min 36 s
Bit rate                                 : 133 b/s
Count of elements                        : 288
Compression mode                         : Lossless
Stream size                              : 19.2 KiB (0%)
Title                                    : Arabic
Language                                 : Arabic
Default                                  : No
Forced                                   : No

Text #3
ID                                       : 5
Format                                   : ASS
Codec ID                                 : S_TEXT/ASS
Codec ID/Info                            : Advanced Sub Station Alpha
Duration                                 : 19 min 36 s
Bit rate                                 : 122 b/s
Count of elements                        : 303
Compression mode                         : Lossless
Stream size                              : 17.7 KiB (0%)
Title                                    : Deutsch
Language                                 : German
Default                                  : No
Forced                                   : No

Text #4
ID                                       : 6
Format                                   : ASS
Codec ID                                 : S_TEXT/ASS
Codec ID/Info                            : Advanced Sub Station Alpha
Duration                                 : 19 min 36 s
Bit rate                                 : 105 b/s
Count of elements                        : 285
Compression mode                         : Lossless
Stream size                              : 15.2 KiB (0%)
Title                                    : Espaأ±ol(Espaأ±a)
Language                                 : Spanish
Default                                  : No
Forced                                   : No

Text #5
ID                                       : 7
Format                                   : ASS
Codec ID                                 : S_TEXT/ASS
Codec ID/Info                            : Advanced Sub Station Alpha
Duration                                 : 19 min 36 s
Bit rate                                 : 105 b/s
Count of elements                        : 285
Compression mode                         : Lossless
Stream size                              : 15.2 KiB (0%)
Title                                    : Espaأ±ol
Language                                 : Spanish
Default                                  : No
Forced                                   : No

Text #6
ID                                       : 8
Format                                   : ASS
Codec ID                                 : S_TEXT/ASS
Codec ID/Info                            : Advanced Sub Station Alpha
Duration                                 : 19 min 36 s
Bit rate                                 : 115 b/s
Count of elements                        : 272
Compression mode                         : Lossless
Stream size                              : 16.6 KiB (0%)
Title                                    : Franأ§ais(France)
Language                                 : French
Default                                  : No
Forced                                   : No

Text #7
ID                                       : 9
Format                                   : ASS
Codec ID                                 : S_TEXT/ASS
Codec ID/Info                            : Advanced Sub Station Alpha
Duration                                 : 19 min 36 s
Bit rate                                 : 125 b/s
Count of elements                        : 293
Compression mode                         : Lossless
Stream size                              : 18.0 KiB (0%)
Title                                    : Italiano
Language                                 : Italian
Default                                  : No
Forced                                   : No

Text #8
ID                                       : 10
Format                                   : ASS
Codec ID                                 : S_TEXT/ASS
Codec ID/Info                            : Advanced Sub Station Alpha
Duration                                 : 19 min 36 s
Bit rate                                 : 120 b/s
Count of elements                        : 291
Compression mode                         : Lossless
Stream size                              : 17.3 KiB (0%)
Title                                    : Portuguأھs(Brasil)
Language                                 : Portuguese
Default                                  : No
Forced                                   : No

Other Files in this Torrent
[Erai-raws] Net-juu no Susume - 10 END [1080p][Multiple Subtitle].mkv
beta
Anime DDL+NZB mirror
Current Time: 18/05/2024 11:02



About/FAQs

Discord