File Size909.4 MB (953,617,644 bytes)
DownloadClickNUpload | Jheberg | MultiUp | OpenLoad | Upfile.mobi
Sendspace: Part1, Part2, Part3, Part4
SolidFiles: Part1, Part2
HashesCRC32: 75416EFA, MD5: 92E9B689706B84ED3AF38A8F4F79F419, SHA1: 1F785411204F4F3D64D2562816EF435BE7C78641, SHA256: 98C634A606DC9950E28F58F8D14E6B4D2B21261F10BBDF850E6C4503187F777E, ED2K: 513D3B114F440CC924A7CCCBE02255B5
Screenshots
screenshotscreenshotscreenshotscreenshotscreenshot
SubtitlesAll Attachments | English(US) [eng, ASS], Deutsch [ger, ASS], Espaأ±ol(Espaأ±a) [spa, ASS], Espaأ±ol [spa, ASS], Franأ§ais(France) [fre, ASS], Italiano [ita, ASS], Portuguأھs(Brasil) [por, ASS], ara [ASS]
Additional Info
General
Unique ID                                : 234555028510087839807675372046615365709 (0xB075A7C1D56F545D8878C2228358C84D)
Complete name                            : [Erai-raws] Net-juu no Susume - 01 [1080p][Multiple Subtitle].mkv
Format                                   : Matroska
Format version                           : Version 4 / Version 2
File size                                : 909 MiB
Duration                                 : 23 min 40 s
Overall bit rate                         : 5 369 kb/s
Encoded date                             : UTC 2017-12-08 23:44:24
Writing application                      : mkvmerge v18.0.0 ('Apricity') 64-bit
Writing library                          : libebml v1.3.5 + libmatroska v1.4.8

Video
ID                                       : 1
Format                                   : AVC
Format/Info                              : Advanced Video Codec
Format profile                           : High@L4
Format settings, CABAC                   : Yes
Format settings, ReFrames                : 4 frames
Codec ID                                 : V_MPEG4/ISO/AVC
Duration                                 : 23 min 40 s
Bit rate                                 : 5 241 kb/s
Width                                    : 1 920 pixels
Height                                   : 1 080 pixels
Display aspect ratio                     : 16:9
Frame rate mode                          : Constant
Frame rate                               : 23.976 (24000/1001) FPS
Color space                              : YUV
Chroma subsampling                       : 4:2:0
Bit depth                                : 8 bits
Scan type                                : Progressive
Bits/(Pixel*Frame)                       : 0.105
Stream size                              : 887 MiB (98%)
Writing library                          : x264 core 142
Encoding settings                        : cabac=1 / ref=4 / deblock=1:1:1 / analyse=0x3:0x113 / me=umh / subme=8 / psy=1 / psy_rd=0.40:0.00 / mixed_ref=1 / me_range=16 / chroma_me=1 / trellis=1 / 8x8dct=1 / cqm=0 / deadzone=21,11 / fast_pskip=1 / chroma_qp_offset=-2 / threads=12 / lookahead_threads=2 / sliced_threads=0 / nr=0 / decimate=1 / interlaced=0 / bluray_compat=0 / constrained_intra=0 / bframes=3 / b_pyramid=2 / b_adapt=2 / b_bias=0 / direct=3 / weightb=1 / open_gop=0 / weightp=2 / keyint=48 / keyint_min=24 / scenecut=40 / intra_refresh=0 / rc_lookahead=48 / rc=crf / mbtree=1 / crf=15.0 / qcomp=0.60 / qpmin=0 / qpmax=69 / qpstep=4 / vbv_maxrate=8000 / vbv_bufsize=12000 / crf_max=0.0 / nal_hrd=none / filler=0 / ip_ratio=1.40 / aq=1:0.60
Language                                 : Japanese
Default                                  : Yes
Forced                                   : No

Audio
ID                                       : 2
Format                                   : AAC
Format/Info                              : Advanced Audio Codec
Format profile                           : LC
Codec ID                                 : A_AAC
Duration                                 : 23 min 40 s
Bit rate                                 : 128 kb/s
Channel(s)                               : 2 channels
Channel positions                        : Front: L R
Sampling rate                            : 44.1 kHz
Frame rate                               : 43.066 FPS (1024 spf)
Compression mode                         : Lossy
Delay relative to video                  : -83 ms
Stream size                              : 21.7 MiB (2%)
Language                                 : Japanese
Default                                  : Yes
Forced                                   : No

Text #1
ID                                       : 3
Format                                   : ASS
Codec ID                                 : S_TEXT/ASS
Codec ID/Info                            : Advanced Sub Station Alpha
Duration                                 : 21 min 42 s
Bit rate                                 : 111 b/s
Count of elements                        : 272
Compression mode                         : Lossless
Stream size                              : 17.7 KiB (0%)
Title                                    : English(US)
Language                                 : English
Default                                  : Yes
Forced                                   : No

Text #2
ID                                       : 4
Format                                   : ASS
Codec ID                                 : S_TEXT/ASS
Codec ID/Info                            : Advanced Sub Station Alpha
Duration                                 : 21 min 43 s
Bit rate                                 : 114 b/s
Count of elements                        : 277
Compression mode                         : Lossless
Stream size                              : 18.2 KiB (0%)
Title                                    : Deutsch
Language                                 : German
Default                                  : No
Forced                                   : No

Text #3
ID                                       : 5
Format                                   : ASS
Codec ID                                 : S_TEXT/ASS
Codec ID/Info                            : Advanced Sub Station Alpha
Duration                                 : 21 min 42 s
Bit rate                                 : 102 b/s
Count of elements                        : 258
Compression mode                         : Lossless
Stream size                              : 16.3 KiB (0%)
Title                                    : Espaأ±ol(Espaأ±a)
Language                                 : Spanish
Default                                  : No
Forced                                   : No

Text #4
ID                                       : 6
Format                                   : ASS
Codec ID                                 : S_TEXT/ASS
Codec ID/Info                            : Advanced Sub Station Alpha
Duration                                 : 21 min 42 s
Bit rate                                 : 102 b/s
Count of elements                        : 258
Compression mode                         : Lossless
Stream size                              : 16.3 KiB (0%)
Title                                    : Espaأ±ol
Language                                 : Spanish
Default                                  : No
Forced                                   : No

Text #5
ID                                       : 7
Format                                   : ASS
Codec ID                                 : S_TEXT/ASS
Codec ID/Info                            : Advanced Sub Station Alpha
Duration                                 : 21 min 41 s
Bit rate                                 : 103 b/s
Count of elements                        : 250
Compression mode                         : Lossless
Stream size                              : 16.4 KiB (0%)
Title                                    : Franأ§ais(France)
Language                                 : French
Default                                  : No
Forced                                   : No

Text #6
ID                                       : 8
Format                                   : ASS
Codec ID                                 : S_TEXT/ASS
Codec ID/Info                            : Advanced Sub Station Alpha
Duration                                 : 21 min 42 s
Bit rate                                 : 111 b/s
Count of elements                        : 271
Compression mode                         : Lossless
Stream size                              : 17.7 KiB (0%)
Title                                    : Italiano
Language                                 : Italian
Default                                  : No
Forced                                   : No

Text #7
ID                                       : 9
Format                                   : ASS
Codec ID                                 : S_TEXT/ASS
Codec ID/Info                            : Advanced Sub Station Alpha
Duration                                 : 21 min 42 s
Bit rate                                 : 109 b/s
Count of elements                        : 274
Compression mode                         : Lossless
Stream size                              : 17.5 KiB (0%)
Title                                    : Portuguأھs(Brasil)
Language                                 : Portuguese
Default                                  : No
Forced                                   : No

Text #8
ID                                       : 10
Format                                   : ASS
Codec ID                                 : S_TEXT/ASS
Codec ID/Info                            : Advanced Sub Station Alpha
Duration                                 : 21 min 42 s
Bit rate                                 : 129 b/s
Count of elements                        : 270
Compression mode                         : Lossless
Stream size                              : 20.6 KiB (0%)
Language                                 : Arabic
Default                                  : No
Forced                                   : No

Other Files in this Torrent
[Erai-raws] Net-juu no Susume - 01 [1080p][Multiple Subtitle].mkv
beta
Anime DDL+NZB mirror
Current Time: 18/05/2024 09:39



About/FAQs

Discord