File Size658.4 MB (690,432,851 bytes)
DownloadClickNUpload | Go4Up | Jheberg | MultiUp
  • ClickNupload
  • Fichier
  • Filerio
  • Free
  • Fufox
  • HugeFiles
  • Mightyupload
  • ToutBox
  • Turbobit
  • UpToBox
  • Uplea
  • UploadBaz
  • Uploadable
  • Uploaded
  • Uppit
  • Userscloud
| OpenLoad
Sendspace: Part1, Part2, Part3
SolidFiles: Part1, Part2
HashesCRC32: 76C7EE01, MD5: 1AE2252A1D3B71B3EE4CFDA19A656400, SHA1: 04B0ACB6A046AFE38B4045B034007FC5766D2EFA, SHA256: 8C1EFE510C2A28AE406EE6D916C1385BA487D01346E999F2EE66E935FFB20263, ED2K: 78C7C84EFF5ED8B5428BB26A7067AE13
Screenshots
screenshotscreenshotscreenshotscreenshotscreenshot
SubtitlesAll Attachments | eng [ASS], por [ASS], spa [ASS]
Additional Info
General
Unique ID                                : 196917705456391612502610412218356009768 (0x9424F8761602B1B29405D09A8D430B28)
Complete name                            : [Erai-raws] Made in Abyss - 13 END [720p AVC-YUV444P10][E-AC3].mkv
Format                                   : Matroska
Format version                           : Version 4 / Version 2
File size                                : 658 MiB
Duration                                 : 47 min 20 s
Overall bit rate                         : 1 944 kb/s
Encoded date                             : UTC 2017-10-12 07:18:26
Writing application                      : mkvmerge v13.0.0 ('The Juggler') 64bit
Writing library                          : libebml v1.3.4 + libmatroska v1.4.5

Video
ID                                       : 1
Format                                   : AVC
Format/Info                              : Advanced Video Codec
Format profile                           : High 4:4:4 Predictive@L5
Format settings, CABAC                   : Yes
Format settings, ReFrames                : 16 frames
Codec ID                                 : V_MPEG4/ISO/AVC
Duration                                 : 47 min 20 s
Bit rate                                 : 1 718 kb/s
Width                                    : 1 280 pixels
Height                                   : 720 pixels
Display aspect ratio                     : 16:9
Frame rate mode                          : Constant
Frame rate                               : 23.976 (24000/1001) FPS
Color space                              : YUV
Chroma subsampling                       : 4:4:4
Bit depth                                : 10 bits
Scan type                                : Progressive
Bits/(Pixel*Frame)                       : 0.078
Stream size                              : 582 MiB (88%)
Writing library                          : x264 core 150 r2833+58 090e24f t_mod_Custom [10-bit@all X86_64]
Encoding settings                        : cabac=1 / ref=16 / deblock=1:-2:-2 / analyse=0x3:0x133 / me=esa / subme=11 / psy=1 / fade_compensate=0.00 / psy_rd=0.50:0.00 / mixed_ref=1 / me_range=29 / chroma_me=1 / trellis=2 / 8x8dct=1 / cqm=0 / deadzone=21,11 / fast_pskip=0 / chroma_qp_offset=4 / threads=35 / lookahead_threads=5 / sliced_threads=0 / nr=0 / decimate=1 / interlaced=0 / bluray_compat=0 / constrained_intra=0 / fgo=0 / bframes=16 / b_pyramid=2 / b_adapt=2 / b_bias=0 / direct=3 / weightb=1 / open_gop=1 / weightp=2 / keyint=250 / keyint_min=23 / scenecut=40 / intra_refresh=0 / rc_lookahead=60 / rc=crf / mbtree=1 / crf=14.0000 / qcomp=0.60 / qpmin=0:0:0 / qpmax=81:81:81 / qpstep=4 / vbv_maxrate=540000 / vbv_bufsize=540000 / crf_max=0.0 / nal_hrd=none / filler=0 / ip_ratio=1.40 / aq=3:0.70 / aq-sensitivity=10.00 / aq-factor=1.00:1.00:1.00 / aq2=0 / aq3=0
Language                                 : Japanese
Default                                  : Yes
Forced                                   : No
Color range                              : Limited
Color primaries                          : BT.709
Transfer characteristics                 : BT.709
Matrix coefficients                      : BT.709

Audio
ID                                       : 2
Format                                   : E-AC-3
Format/Info                              : Enhanced Audio Coding 3
Format settings, Endianness              : Big
Codec ID                                 : A_EAC3
Duration                                 : 47 min 20 s
Bit rate mode                            : Constant
Bit rate                                 : 224 kb/s
Channel(s)                               : 2 channels
Channel positions                        : Front: L R
Sampling rate                            : 48.0 kHz
Frame rate                               : 187.500 FPS (256 spf)
Compression mode                         : Lossy
Stream size                              : 75.9 MiB (12%)
Language                                 : Japanese
Default                                  : Yes
Forced                                   : No

Text #1
ID                                       : 3
Format                                   : ASS
Codec ID                                 : S_TEXT/ASS
Codec ID/Info                            : Advanced Sub Station Alpha
Duration                                 : 47 min 7 s
Bit rate                                 : 95 b/s
Count of elements                        : 664
Compression mode                         : Lossless
Stream size                              : 32.9 KiB (0%)
Language                                 : English
Default                                  : Yes
Forced                                   : No

Text #2
ID                                       : 4
Format                                   : ASS
Codec ID                                 : S_TEXT/ASS
Codec ID/Info                            : Advanced Sub Station Alpha
Duration                                 : 47 min 7 s
Bit rate                                 : 86 b/s
Count of elements                        : 630
Compression mode                         : Lossless
Stream size                              : 30.0 KiB (0%)
Language                                 : Portuguese
Default                                  : No
Forced                                   : No

Text #3
ID                                       : 5
Format                                   : ASS
Codec ID                                 : S_TEXT/ASS
Codec ID/Info                            : Advanced Sub Station Alpha
Duration                                 : 47 min 7 s
Bit rate                                 : 87 b/s
Count of elements                        : 633
Compression mode                         : Lossless
Stream size                              : 30.2 KiB (0%)
Language                                 : Spanish
Default                                  : No
Forced                                   : No

Other Files in this Torrent
[Erai-raws] Made in Abyss - 13 END [720p AVC-YUV444P10][E-AC3].mkv
beta
Anime DDL+NZB mirror
Current Time: 17/06/2024 06:06



About/FAQs

Discord