File Size375.5 MB (393,701,431 bytes)
DownloadAnonFiles | ClickNUpload | DropAPK | Free | MultiUp
  • BdUpload
  • DownAce
  • Fichier
  • FileCloud
  • Filerio
  • FilesCdn
  • IndiShare
  • Kbagi
  • Turbobit
  • UpToBox
  • Uppit
| SolidFiles | ZippyShare
Sendspace: Part1, Part2
HashesCRC32: E12153F3, MD5: 59A78DD6054EA0EDF8E64F8012D3AA6C, SHA1: 963007F6A84E47F26AA51E40FA02142D4C5E63C1, SHA256: 3C312311A7F32D11ED89D430DC4E5975B6D40016330CE458DD53202A28F6853B, ED2K: BB583BCD21D8F766FAAC6C771FF57C8F
Screenshots
screenshotscreenshotscreenshotscreenshotscreenshot
SubtitlesAll Attachments | Signs/Songs [MTBB] [eng, ASS], Subtitles [MTBB] [eng, ASS]
Additional Info
General
Unique ID                                : 339092970283881268629092249911325793481 (0xFF1AEE37E02684B8916563D79C569CC9)
Complete name                            : [Edge] Sword Art Online - Alicization - War of Underworld 10 {1080p][10Bit][BD][x265].mkv
Format                                   : Matroska
Format version                           : Version 4
File size                                : 375 MiB
Duration                                 : 23 min 42 s
Overall bit rate                         : 2 215 kb/s
Encoded date                             : UTC 2020-05-07 13:20:05
Writing application                      : mkvmerge v45.0.0 ('Heaven in Pennies') 64-bit
Writing library                          : libebml v1.3.10 + libmatroska v1.5.2
Attachments                              : BELLGOTHIC-BOLD.ttf / FUTURA.otf / GandhiSans-Bold.otf / GandhiSans-BoldItalic.otf / OPTIMALTSTD-BOLD.otf / QUADRAAT-BOLD.otf

Video
ID                                       : 1
Format                                   : HEVC
Format/Info                              : High Efficiency Video Coding
Format profile                           : Main 10@L4@Main
Codec ID                                 : V_MPEGH/ISO/HEVC
Duration                                 : 23 min 42 s
Bit rate                                 : 1 793 kb/s
Width                                    : 1 920 pixels
Height                                   : 1 080 pixels
Display aspect ratio                     : 16:9
Frame rate mode                          : Constant
Frame rate                               : 23.976 (24000/1001) FPS
Color space                              : YUV
Chroma subsampling                       : 4:2:0
Bit depth                                : 10 bits
Bits/(Pixel*Frame)                       : 0.036
Stream size                              : 304 MiB (81%)
Default                                  : Yes
Forced                                   : No

Audio #1
ID                                       : 2
Format                                   : AAC LC
Format/Info                              : Advanced Audio Codec Low Complexity
Codec ID                                 : A_AAC-2
Duration                                 : 23 min 40 s
Bit rate                                 : 139 kb/s
Channel(s)                               : 2 channels
Channel layout                           : L R
Sampling rate                            : 44.1 kHz
Frame rate                               : 43.066 FPS (1024 SPF)
Compression mode                         : Lossy
Delay relative to video                  : 22 ms
Stream size                              : 23.6 MiB (6%)
Title                                    : AAC 2.0 [KaiDubs]
Language                                 : English
Default                                  : No
Forced                                   : No

Audio #2
ID                                       : 3
Format                                   : Opus
Codec ID                                 : A_OPUS
Duration                                 : 23 min 42 s
Bit rate                                 : 262 kb/s
Channel(s)                               : 2 channels
Channel layout                           : L R
Sampling rate                            : 48.0 kHz
Frame rate                               : 50.000 FPS (960 SPF)
Compression mode                         : Lossy
Stream size                              : 44.3 MiB (12%)
Writing library                          : Lavc58.71.100 libopus
Language                                 : Japanese
Default                                  : No
Forced                                   : No

Text #1
ID                                       : 4
Format                                   : ASS
Codec ID                                 : S_TEXT/ASS
Codec ID/Info                            : Advanced Sub Station Alpha
Duration                                 : 23 min 39 s
Bit rate                                 : 7 910 b/s
Count of elements                        : 315
Compression mode                         : Lossless
Stream size                              : 1.34 MiB (0%)
Title                                    : Signs/Songs [MTBB]
Language                                 : English
Default                                  : No
Forced                                   : Yes

Text #2
ID                                       : 5
Format                                   : ASS
Codec ID                                 : S_TEXT/ASS
Codec ID/Info                            : Advanced Sub Station Alpha
Duration                                 : 23 min 39 s
Bit rate                                 : 8 023 b/s
Count of elements                        : 591
Compression mode                         : Lossless
Stream size                              : 1.36 MiB (0%)
Title                                    : Subtitles [MTBB]
Language                                 : English
Default                                  : Yes
Forced                                   : No

Menu
00:00:00.033                             : en:Intro
00:01:22.970                             : en:OP
00:02:53.030                             : en:Episode
00:22:05.050                             : en:ED
00:23:35.060                             : en:Preview

Other Files in this Torrent
[Edge] Sword Art Online - Alicization - War of Underworld 10 {1080p][10Bit][BD][x265].mkv
beta
Anime DDL+NZB mirror
Current Time: 25/07/2021 00:04



About/FAQs