File Size408.5 MB (428,302,415 bytes)
DownloadAnonFiles | ClickNUpload | DropAPK | Free | MultiUp
  • BdUpload
  • DownAce
  • Fichier
  • FileCloud
  • Filerio
  • FilesCdn
  • IndiShare
  • Kbagi
  • Turbobit
  • UpToBox
  • Uppit
| SolidFiles | ZippyShare
Sendspace: Part1, Part2
HashesCRC32: BC7AEFA7, MD5: 9789946F6CFCBABA7D356AD4A0BBE347, SHA1: 0E98687A64F8DB4E1BAA81803755A16806169D67, SHA256: EA33D6500BB87756946A5091840A9AB29D2FA9E188010C3CDD15919F37BE4577, ED2K: B30EE36ED6BF6619E88614D3457F2398
Screenshots
screenshotscreenshotscreenshotscreenshotscreenshot
SubtitlesAll Attachments | Signs/Songs [MTBB] [eng, ASS], Subtitles [MTBB] [eng, ASS]
Additional Info
General
Unique ID                                : 16512519974526374394830998141168282736 (0xC6C321745FAD4D0B8B4AEDE31006C70)
Complete name                            : [Edge] Sword Art Online - Alicization - War of Underworld 11 {1080p][10Bit][BD][x265].mkv
Format                                   : Matroska
Format version                           : Version 4
File size                                : 408 MiB
Duration                                 : 23 min 42 s
Overall bit rate                         : 2 409 kb/s
Encoded date                             : UTC 2020-05-07 13:22:31
Writing application                      : mkvmerge v45.0.0 ('Heaven in Pennies') 64-bit
Writing library                          : libebml v1.3.10 + libmatroska v1.5.2
Attachments                              : ARIAL-BOLDMT-STR.ttf / BELLGOTHIC-BOLD.ttf / FUTURA.otf / GandhiSans-Bold.otf / GandhiSans-BoldItalic.otf / QUADRAAT-BOLD.otf

Video
ID                                       : 1
Format                                   : HEVC
Format/Info                              : High Efficiency Video Coding
Format profile                           : Main 10@L4@Main
Codec ID                                 : V_MPEGH/ISO/HEVC
Duration                                 : 23 min 42 s
Bit rate                                 : 1 997 kb/s
Width                                    : 1 920 pixels
Height                                   : 1 080 pixels
Display aspect ratio                     : 16:9
Frame rate mode                          : Constant
Frame rate                               : 23.976 (24000/1001) FPS
Color space                              : YUV
Chroma subsampling                       : 4:2:0
Bit depth                                : 10 bits
Bits/(Pixel*Frame)                       : 0.040
Stream size                              : 339 MiB (83%)
Default                                  : Yes
Forced                                   : No

Audio #1
ID                                       : 2
Format                                   : AAC LC
Format/Info                              : Advanced Audio Codec Low Complexity
Codec ID                                 : A_AAC-2
Duration                                 : 23 min 40 s
Bit rate                                 : 139 kb/s
Channel(s)                               : 2 channels
Channel layout                           : L R
Sampling rate                            : 44.1 kHz
Frame rate                               : 43.066 FPS (1024 SPF)
Compression mode                         : Lossy
Delay relative to video                  : 22 ms
Stream size                              : 23.6 MiB (6%)
Title                                    : AAC 2.0 [KaiDubs]
Language                                 : English
Default                                  : No
Forced                                   : No

Audio #2
ID                                       : 3
Format                                   : Opus
Codec ID                                 : A_OPUS
Duration                                 : 23 min 42 s
Bit rate                                 : 252 kb/s
Channel(s)                               : 2 channels
Channel layout                           : L R
Sampling rate                            : 48.0 kHz
Frame rate                               : 50.000 FPS (960 SPF)
Compression mode                         : Lossy
Stream size                              : 42.6 MiB (10%)
Writing library                          : Lavc58.71.100 libopus
Language                                 : Japanese
Default                                  : No
Forced                                   : No

Text #1
ID                                       : 4
Format                                   : ASS
Codec ID                                 : S_TEXT/ASS
Codec ID/Info                            : Advanced Sub Station Alpha
Duration                                 : 22 min 12 s
Bit rate                                 : 7 292 b/s
Count of elements                        : 306
Compression mode                         : Lossless
Stream size                              : 1.16 MiB (0%)
Title                                    : Signs/Songs [MTBB]
Language                                 : English
Default                                  : No
Forced                                   : Yes

Text #2
ID                                       : 5
Format                                   : ASS
Codec ID                                 : S_TEXT/ASS
Codec ID/Info                            : Advanced Sub Station Alpha
Duration                                 : 23 min 37 s
Bit rate                                 : 6 958 b/s
Count of elements                        : 557
Compression mode                         : Lossless
Stream size                              : 1.18 MiB (0%)
Title                                    : Subtitles [MTBB]
Language                                 : English
Default                                  : Yes
Forced                                   : No

Menu #1
00:00:00.033                             : en:Intro
00:01:22.970                             : en:OP
00:02:53.030                             : en:Episode
00:22:05.050                             : en:ED
00:23:35.060                             : en:Preview

Menu #2
00:00:00.033                             : en:Intro
00:01:28.980                             : en:OP
00:02:58.960                             : en:Episode
00:23:35.060                             : en:Preview

Other Files in this Torrent
[Edge] Sword Art Online - Alicization - War of Underworld 11 {1080p][10Bit][BD][x265].mkv
beta
Anime DDL+NZB mirror
Current Time: 24/07/2021 23:40



About/FAQs