File Size14.52 MB (15,220,711 bytes)
DownloadClickNUpload | Jheberg | MultiUp
  • BdUpload
  • DownAce
  • Fichier
  • FileCloud
  • Filerio
  • FilesCdn
  • IndiShare
  • Kbagi
  • Turbobit
  • UpToBox
  • Uppit
| OpenLoad | Sendspace | SolidFiles | ZippyShare
HashesCRC32: 3E148250, MD5: 73C3A9E0B22FF790DB3904C6F1BDC0DD, SHA1: 6A1F86A9AF832EE6B13FA1348FCC812317C02C64, SHA256: 0F0E597A743B39B35A40C13EBCADC6A731D7C0275D87F281874D41B80EAAB0EE, ED2K: 4EE9D562DF14F240F491B44C7BC56A29
Screenshots
screenshotscreenshotscreenshotscreenshotscreenshot
Additional Info
General
Unique ID                                : 240804557250744489577719196191576981039 (0xB52945503A0772E094E5522E72C67E2F)
Complete name                            : Dungeon ni Deai wo Motomeru no wa Machigatteiru Darou ka Movie Orion no Ya Bonus Epilogue (480p AAC).mkv
Format                                   : Matroska
Format version                           : Version 4
File size                                : 14.5 MiB
Duration                                 : 5 min 44 s
Overall bit rate                         : 354 kb/s
Movie name                               : Dungeon ni Deai wo Motomeru no wa Machigatteiru Darou ka Movie: Orion no Ya Bonus Epilogue (480p AAC)
Encoded date                             : UTC 2019-07-12 06:47:45
Writing application                      : mkvmerge v8.3.0 ('Over the Horizon') 64bit
Writing library                          : libebml v1.3.1 + libmatroska v1.4.2

Video
ID                                       : 1
Format                                   : AVC
Format/Info                              : Advanced Video Codec
Format profile                           : High@L4.1
Format settings                          : CABAC / 16 Ref Frames
Format settings, CABAC                   : Yes
Format settings, ReFrames                : 16 frames
Codec ID                                 : V_MPEG4/ISO/AVC
Duration                                 : 5 min 43 s
Bit rate                                 : 224 kb/s
Width                                    : 848 pixels
Height                                   : 480 pixels
Display aspect ratio                     : 16:9
Frame rate mode                          : Constant
Frame rate                               : 30.000 FPS
Color space                              : YUV
Chroma subsampling                       : 4:2:0
Bit depth                                : 8 bits
Scan type                                : Progressive
Bits/(Pixel*Frame)                       : 0.018
Stream size                              : 9.17 MiB (63%)
Title                                    : Dungeon ni Deai wo Motomeru no wa Machigatteiru Darou ka Movie: Orion no Ya Bonus Epilogue
Writing library                          : x264 core 152 r2851kMod ba24899
Encoding settings                        : cabac=1 / ref=16 / deblock=1:0:0 / analyse=0x3:0x133 / me=tesa / subme=11 / psy=1 / fade_compensate=0.00 / psy_rd=0.60:0.00 / mixed_ref=1 / me_range=32 / chroma_me=1 / trellis=2 / 8x8dct=1 / cqm=0 / deadzone=21,11 / fast_pskip=1 / chroma_qp_offset=-2 / threads=15 / lookahead_threads=2 / sliced_threads=0 / nr=0 / decimate=1 / interlaced=0 / bluray_compat=0 / constrained_intra=0 / bframes=16 / b_pyramid=2 / b_adapt=2 / b_bias=0 / direct=3 / weightb=1 / open_gop=0 / weightp=2 / keyint=300 / keyint_min=30 / scenecut=40 / intra_refresh=0 / rc_lookahead=40 / rc=crf / mbtree=1 / crf=21.0000 / qcomp=0.60 / qpmin=0 / qpmax=69 / qpstep=4 / ip_ratio=1.40 / aq=1:0.70
Language                                 : Japanese
Default                                  : Yes
Forced                                   : No

Audio
ID                                       : 2
Format                                   : AAC LC
Format/Info                              : Advanced Audio Codec Low Complexity
Codec ID                                 : A_AAC-2
Duration                                 : 5 min 44 s
Bit rate                                 : 128 kb/s
Channel(s)                               : 2 channels
Channel layout                           : L R
Sampling rate                            : 44.1 kHz
Frame rate                               : 43.066 FPS (1024 SPF)
Compression mode                         : Lossy
Delay relative to video                  : 5 ms
Stream size                              : 5.25 MiB (36%)
Title                                    : AAC
Language                                 : Japanese
Default                                  : Yes
Forced                                   : No

Other Files in this Torrent
Dungeon ni Deai wo Motomeru no wa Machigatteiru Darou ka Movie Orion no Ya Bonus Epilogue (480p AAC).mkv
beta
Anime DDL+NZB mirror
Current Time: 11/07/2020 19:46



About/FAQs