File Size691.8 MB (725,419,927 bytes)
DownloadClickNUpload | Jheberg | OpenLoad
MultiUp: Part1
  • BdUpload
  • DownAce
  • Fichier
  • FileCloud
  • Filerio
  • FilesCdn
  • IndiShare
  • Kbagi
  • Turbobit
  • UpToBox
  • Uppit
, Part2
  • BdUpload
  • DownAce
  • Fichier
  • FileCloud
  • Filerio
  • FilesCdn
  • IndiShare
  • Kbagi
  • Turbobit
  • UpToBox
  • Uppit

Sendspace: Part1, Part2, Part3
SolidFiles: Part1, Part2
ZippyShare: Part1, Part2
HashesCRC32: 441FFFA2, MD5: 811EBE0E34F891BA45993F8DC1AFDB37, SHA1: DFB9B532480A7204887A590C897DEBB486D32A92, SHA256: 79952AEC05C5D8C3DED3403D5E5BDF0A87CB723F7BD615D4FA8018D40C9231CA, ED2K: 8CF987725D8982AFC7DA9B4773B66A10
Screenshots
screenshotscreenshotscreenshotscreenshotscreenshot
SubtitlesAll Attachments | English [eng, ASS]
Additional Info
General
Unique ID                                : 185647758721988954849759550710825951531 (0x8BAA752FF67F82878F3D8198EA91212B)
Complete name                            : Dungeon ni Deai wo Motomeru no wa Machigatteiru Darou ka Movie Orion no Ya (Web 480p AAC).mkv
Format                                   : Matroska
Format version                           : Version 4
File size                                : 692 MiB
Duration                                 : 1 h 22 min
Overall bit rate                         : 1 177 kb/s
Movie name                               : Dungeon ni Deai wo Motomeru no wa Machigatteiru Darou ka Movie: Orion no Ya (Web 480p AAC)
Encoded date                             : UTC 2019-07-12 06:38:44
Writing application                      : mkvmerge v8.3.0 ('Over the Horizon') 64bit
Writing library                          : libebml v1.3.1 + libmatroska v1.4.2
Attachments                              : CarrefourMetis-Bold.otf / GLECB.TTF

Video
ID                                       : 1
Format                                   : AVC
Format/Info                              : Advanced Video Codec
Format profile                           : High@L4.1
Format settings                          : CABAC / 16 Ref Frames
Format settings, CABAC                   : Yes
Format settings, ReFrames                : 16 frames
Codec ID                                 : V_MPEG4/ISO/AVC
Duration                                 : 1 h 22 min
Bit rate                                 : 844 kb/s
Width                                    : 848 pixels
Height                                   : 480 pixels
Display aspect ratio                     : 16:9
Frame rate mode                          : Constant
Frame rate                               : 23.976 (24000/1001) FPS
Color space                              : YUV
Chroma subsampling                       : 4:2:0
Bit depth                                : 8 bits
Scan type                                : Progressive
Bits/(Pixel*Frame)                       : 0.087
Stream size                              : 496 MiB (72%)
Title                                    : Dungeon ni Deai wo Motomeru no wa Machigatteiru Darou ka Movie: Orion no Ya
Writing library                          : x264 core 152 r2851kMod ba24899
Encoding settings                        : cabac=1 / ref=16 / deblock=1:0:0 / analyse=0x3:0x133 / me=tesa / subme=11 / psy=1 / fade_compensate=0.00 / psy_rd=0.90:0.00 / mixed_ref=1 / me_range=32 / chroma_me=1 / trellis=2 / 8x8dct=1 / cqm=0 / deadzone=21,11 / fast_pskip=1 / chroma_qp_offset=-2 / threads=15 / lookahead_threads=2 / sliced_threads=0 / nr=0 / decimate=1 / interlaced=0 / bluray_compat=0 / constrained_intra=0 / bframes=16 / b_pyramid=2 / b_adapt=2 / b_bias=0 / direct=3 / weightb=1 / open_gop=0 / weightp=2 / keyint=240 / keyint_min=23 / scenecut=40 / intra_refresh=0 / rc_lookahead=50 / rc=crf / mbtree=1 / crf=18.5000 / qcomp=0.60 / qpmin=0 / qpmax=69 / qpstep=4 / ip_ratio=1.40 / aq=3:0.92
Language                                 : Japanese
Default                                  : Yes
Forced                                   : No

Audio
ID                                       : 2
Format                                   : AAC LC
Format/Info                              : Advanced Audio Codec Low Complexity
Codec ID                                 : A_AAC-2
Duration                                 : 1 h 22 min
Bit rate                                 : 329 kb/s
Channel(s)                               : 2 channels
Channel layout                           : L R
Sampling rate                            : 48.0 kHz
Frame rate                               : 46.875 FPS (1024 SPF)
Compression mode                         : Lossy
Stream size                              : 193 MiB (28%)
Title                                    : AAC
Language                                 : Japanese
Default                                  : Yes
Forced                                   : No

Text
ID                                       : 3
Format                                   : ASS
Codec ID                                 : S_TEXT/ASS
Codec ID/Info                            : Advanced Sub Station Alpha
Duration                                 : 1 h 20 min
Bit rate                                 : 1 698 b/s
Count of elements                        : 2216
Compression mode                         : Lossless
Stream size                              : 999 KiB (0%)
Title                                    : English
Language                                 : English
Default                                  : Yes
Forced                                   : No

Other Files in this Torrent
Dungeon ni Deai wo Motomeru no wa Machigatteiru Darou ka Movie Orion no Ya (Web 480p AAC).mkv
beta
Anime DDL+NZB mirror
Current Time: 25/01/2020 00:22



About/FAQs