File Size305.3 MB (320,156,054 bytes)
DownloadAnonFiles | ClickNUpload | DropAPK | MultiUp
  • BdUpload
  • DownAce
  • Fichier
  • FileCloud
  • Filerio
  • FilesCdn
  • IndiShare
  • Kbagi
  • Turbobit
  • UpToBox
  • Uppit
| SolidFiles | ZippyShare
HashesCRC32: 3A61FB58, MD5: 71D12037823B09BA8098D804FFDE35E8, SHA1: 446EB1A158C4A597DBCEC56CC4BC85B67755BFE2, SHA256: 197CBEB4C105C84A67DC5FCA127C1A6EE56D51FA4D750F89FE03DB796E5AB7B0, ED2K: 147BE6A731AA9910B89062A92A5B4972
Screenshots
screenshotscreenshotscreenshotscreenshotscreenshot
SubtitlesAll Attachments | English (US) / English (US) [eng, ASS], Spanish (Latin American) / Español (América Latina) [spa, ASS], Spanish / Español (España) [spa, ASS], French / Français (France) [fre, ASS], Portuguese (Brazilian) / Português (Brasil) [por, ASS], Arabic / العربية [ara, ASS], Italian / Italiano [ita, ASS], German / Deutsch [ger, ASS], Russian / Русский [rus, ASS]
Additional Info
General
Unique ID                                : 137312592303080710904281524290079848485 (0x674D717DCC9A74A118B25DD51ABA7825)
Complete name                            : [DKB] Tensura Nikki - Tensei shitara Slime Datta Ken - S01E04 [1080p][HEVC-265 10bit][Multi-Subs].mkv
Format                                   : Matroska
Format version                           : Version 4
File size                                : 305 MiB
Duration                                 : 23 min 42 s
Overall bit rate                         : 1 801 kb/s
Writing application                      : Lavf57.83.100
Writing library                          : Lavf57.83.100
ErrorDetectionType                       : Per level 1
Attachments                              : monbaiti.ttf / arial.ttf / trebuc.ttf / times.ttf / AdobeArabic-Bold.otf / verdana.ttf / comic.ttf / georgia.ttf / impact.ttf / tahoma.ttf

Video
ID                                       : 1
Format                                   : HEVC
Format/Info                              : High Efficiency Video Coding
Format profile                           : Main 10@L4@Main
Codec ID                                 : V_MPEGH/ISO/HEVC
Duration                                 : 23 min 42 s
Bit rate                                 : 7 997 kb/s
Width                                    : 1 920 pixels
Height                                   : 1 080 pixels
Display aspect ratio                     : 16:9
Frame rate mode                          : Constant
Frame rate                               : 23.976 (24000/1001) FPS
Color space                              : YUV
Chroma subsampling                       : 4:2:0
Bit depth                                : 10 bits
Bits/(Pixel*Frame)                       : 0.161
Stream size                              : 1.32 GiB
Title                                    : [DKB Team]
Writing library                          : x265 3.2.1+1-d8c36a94gebe:[Windows][GCC 9.2.0][64 bit] 10bit
Default                                  : Yes
Forced                                   : No

Audio
ID                                       : 2
Format                                   : AAC LC
Format/Info                              : Advanced Audio Codec Low Complexity
Codec ID                                 : A_AAC-2
Duration                                 : 23 min 42 s
Bit rate                                 : 128 kb/s
Channel(s)                               : 2 channels
Channel layout                           : L R
Sampling rate                            : 44.1 kHz
Frame rate                               : 43.066 FPS (1024 SPF)
Compression mode                         : Lossy
Stream size                              : 21.7 MiB (7%)
Language                                 : Japanese
Default                                  : Yes
Forced                                   : No

Text #1
ID                                       : 3
Format                                   : ASS
Codec ID                                 : S_TEXT/ASS
Codec ID/Info                            : Advanced Sub Station Alpha
Duration                                 : 23 min 41 s
Bit rate                                 : 120 b/s
Count of elements                        : 316
Compression mode                         : Lossless
Stream size                              : 20.7 KiB (0%)
Title                                    : English (US) / English (US)
Writing library                          : Lavc57.107.100 ssa
Language                                 : English
Default                                  : Yes
Forced                                   : No

Text #2
ID                                       : 4
Format                                   : ASS
Codec ID                                 : S_TEXT/ASS
Codec ID/Info                            : Advanced Sub Station Alpha
Duration                                 : 23 min 41 s
Bit rate                                 : 95 b/s
Count of elements                        : 281
Compression mode                         : Lossless
Stream size                              : 16.5 KiB (0%)
Title                                    : Spanish (Latin American) / Español (América Latina)
Writing library                          : Lavc57.107.100 ssa
Language                                 : Spanish
Default                                  : No
Forced                                   : No

Text #3
ID                                       : 5
Format                                   : ASS
Codec ID                                 : S_TEXT/ASS
Codec ID/Info                            : Advanced Sub Station Alpha
Duration                                 : 23 min 41 s
Bit rate                                 : 98 b/s
Count of elements                        : 281
Compression mode                         : Lossless
Stream size                              : 17.0 KiB (0%)
Title                                    : Spanish  / Español (España)
Writing library                          : Lavc57.107.100 ssa
Language                                 : Spanish
Default                                  : No
Forced                                   : No

Text #4
ID                                       : 6
Format                                   : ASS
Codec ID                                 : S_TEXT/ASS
Codec ID/Info                            : Advanced Sub Station Alpha
Duration                                 : 23 min 41 s
Bit rate                                 : 127 b/s
Count of elements                        : 307
Compression mode                         : Lossless
Stream size                              : 22.0 KiB (0%)
Title                                    : French  / Français (France)
Writing library                          : Lavc57.107.100 ssa
Language                                 : French
Default                                  : No
Forced                                   : No

Text #5
ID                                       : 7
Format                                   : ASS
Codec ID                                 : S_TEXT/ASS
Codec ID/Info                            : Advanced Sub Station Alpha
Duration                                 : 23 min 41 s
Bit rate                                 : 135 b/s
Count of elements                        : 362
Compression mode                         : Lossless
Stream size                              : 23.3 KiB (0%)
Title                                    : Portuguese (Brazilian) / Português (Brasil)
Writing library                          : Lavc57.107.100 ssa
Language                                 : Portuguese
Default                                  : No
Forced                                   : No

Text #6
ID                                       : 8
Format                                   : ASS
Codec ID                                 : S_TEXT/ASS
Codec ID/Info                            : Advanced Sub Station Alpha
Duration                                 : 23 min 41 s
Bit rate                                 : 145 b/s
Count of elements                        : 315
Compression mode                         : Lossless
Stream size                              : 25.0 KiB (0%)
Title                                    : Arabic / العربية
Writing library                          : Lavc57.107.100 ssa
Language                                 : Arabic
Default                                  : No
Forced                                   : No

Text #7
ID                                       : 9
Format                                   : ASS
Codec ID                                 : S_TEXT/ASS
Codec ID/Info                            : Advanced Sub Station Alpha
Duration                                 : 23 min 41 s
Bit rate                                 : 151 b/s
Count of elements                        : 364
Compression mode                         : Lossless
Stream size                              : 26.1 KiB (0%)
Title                                    : Italian / Italiano
Writing library                          : Lavc57.107.100 ssa
Language                                 : Italian
Default                                  : No
Forced                                   : No

Text #8
ID                                       : 10
Format                                   : ASS
Codec ID                                 : S_TEXT/ASS
Codec ID/Info                            : Advanced Sub Station Alpha
Duration                                 : 23 min 41 s
Bit rate                                 : 135 b/s
Count of elements                        : 332
Compression mode                         : Lossless
Stream size                              : 23.3 KiB (0%)
Title                                    : German / Deutsch
Writing library                          : Lavc57.107.100 ssa
Language                                 : German
Default                                  : No
Forced                                   : No

Text #9
ID                                       : 11
Format                                   : ASS
Codec ID                                 : S_TEXT/ASS
Codec ID/Info                            : Advanced Sub Station Alpha
Duration                                 : 23 min 41 s
Bit rate                                 : 188 b/s
Count of elements                        : 313
Compression mode                         : Lossless
Stream size                              : 32.5 KiB (0%)
Title                                    : Russian / Русский
Writing library                          : Lavc57.107.100 ssa
Language                                 : Russian
Default                                  : No
Forced                                   : No

Other Files in this Torrent
[DKB] Tensura Nikki - Tensei shitara Slime Datta Ken - S01E04 [1080p][HEVC-265 10bit][Multi-Subs].mkv
beta
Anime DDL+NZB mirror
Current Time: 28/01/2023 14:26



About/FAQs

Discord