File Size244.2 MB (256,093,647 bytes)
DownloadAnonFiles | ClickNUpload | DropAPK | Free | MultiUp
  • BdUpload
  • DownAce
  • Fichier
  • FileCloud
  • Filerio
  • FilesCdn
  • IndiShare
  • Kbagi
  • Turbobit
  • UpToBox
  • Uppit
| Sendspace | SolidFiles | ZippyShare
HashesCRC32: 9B5AB844, MD5: 3D7ECC741128201E829E93FDCD252B94, SHA1: D18529152A51822F0B8D5E2B4283EDA105BACAC3, SHA256: E7059044DC83D75AC9F2DAD342BDCA7592452C6165EF67E8B7F091E549FF228E, ED2K: D4F4DCB8A4073FBCDC234E8E4654EB79
Screenshots
screenshotscreenshotscreenshotscreenshotscreenshot
Additional Info
General
Complete name                            : [DeadFish]_Hunter_x_Hunter_(2011)_-_018_[720p][AAC].mp4
Format                                   : MPEG-4
Format profile                           : Base Media
Codec ID                                 : isom (isom/avc1)
File size                                : 244 MiB
Duration                                 : 23 min 37 s
Overall bit rate mode                    : Variable
Overall bit rate                         : 1 445 kb/s
Encoded date                             : UTC 2015-01-29 21:55:05
Tagged date                              : UTC 2015-01-29 21:55:05

Video
ID                                       : 1
Format                                   : AVC
Format/Info                              : Advanced Video Codec
Format profile                           : High@L4.1
Format settings                          : CABAC / 8 Ref Frames
Format settings, CABAC                   : Yes
Format settings, ReFrames                : 8 frames
Codec ID                                 : avc1
Codec ID/Info                            : Advanced Video Coding
Duration                                 : 23 min 37 s
Bit rate                                 : 1 314 kb/s
Maximum bit rate                         : 6 617 kb/s
Width                                    : 1 280 pixels
Height                                   : 720 pixels
Display aspect ratio                     : 16:9
Frame rate mode                          : Constant
Frame rate                               : 23.976 (24000/1001) FPS
Color space                              : YUV
Chroma subsampling                       : 4:2:0
Bit depth                                : 8 bits
Scan type                                : Progressive
Bits/(Pixel*Frame)                       : 0.059
Stream size                              : 222 MiB (91%)
Title                                    : Imported with GPAC 0.4.6-DEV (build 1)
Writing library                          : x264 core 79 r1342kMod e8501ef
Encoding settings                        : cabac=1 / ref=8 / deblock=1:0:0 / analyse=0x3:0x133 / me=umh / subme=9 / psy=1 / psy_rd=1.0:0.0 / mixed_ref=1 / me_range=16 / chroma_me=1 / trellis=2 / 8x8dct=1 / cqm=0 / deadzone=21,11 / chroma_qp_offset=-2 / threads=12 / nr=0 / decimate=1 / mbaff=0 / constrained_intra=0 / bframes=3 / b_pyramid=0 / b_adapt=2 / b_bias=0 / direct=3 / wpredb=1 / wpredp=2 / keyint=250 / keyint_min=25 / scenecut=40 / rc_lookahead=60 / rc=crf / mbtree=1 / crf=18.0000 / qcomp=0.50 / qpmin=10 / qpmax=51 / qpstep=4 / vbv_maxrate=24000 / vbv_bufsize=24000 / ip_ratio=1.40 / aq=1:1.00
Encoded date                             : UTC 2015-01-29 21:55:05
Tagged date                              : UTC 2015-01-29 21:55:09
Codec configuration box                  : avcC

Audio
ID                                       : 2
Format                                   : AAC LC
Format/Info                              : Advanced Audio Codec Low Complexity
Codec ID                                 : mp4a-40-2
Duration                                 : 23 min 37 s
Bit rate mode                            : Variable
Bit rate                                 : 128 kb/s
Maximum bit rate                         : 150 kb/s
Channel(s)                               : 2 channels
Channel layout                           : L R
Sampling rate                            : 44.1 kHz
Frame rate                               : 43.066 FPS (1024 SPF)
Compression mode                         : Lossy
Stream size                              : 21.6 MiB (9%)
Encoded date                             : UTC 2015-01-29 21:55:08
Tagged date                              : UTC 2015-01-29 21:55:09

Other Files in this Torrent
[DeadFish]_Hunter_x_Hunter_(2011)_-_018_[720p][AAC].mp4
beta
Anime DDL+NZB mirror
Current Time: 29/05/2024 22:09



About/FAQs

Discord