File Size311.2 MB (326,320,772 bytes)
DownloadAnonFiles | ClickNUpload | DropAPK | Free | MultiUp
  • BdUpload
  • DownAce
  • Fichier
  • FileCloud
  • Filerio
  • FilesCdn
  • IndiShare
  • Kbagi
  • Turbobit
  • UpToBox
  • Uppit
| SolidFiles | ZippyShare
Sendspace: Part1, Part2
HashesCRC32: AD487066, MD5: 859344D42C39FA97851A2C6F86CDD70C, SHA1: 35FF90D10EE93BC66AD72E1492EDBA5AB0BE345F, SHA256: E0733BC8B430C8C24AE84AE4AA83FCDBFD11F66A7CA205145BA3A7A8ACC52972, ED2K: 45D0A13520181F8054E23ED812D50474
Screenshots
screenshotscreenshotscreenshotscreenshotscreenshot
Additional Info
General
Complete name                            : [DeadFish]_Hunter_x_Hunter_(2011)_-_001_[720p][AAC].mp4
Format                                   : MPEG-4
Format profile                           : Base Media
Codec ID                                 : isom (isom/avc1)
File size                                : 311 MiB
Duration                                 : 23 min 37 s
Overall bit rate mode                    : Variable
Overall bit rate                         : 1 842 kb/s
Encoded date                             : UTC 2015-01-27 23:23:15
Tagged date                              : UTC 2015-01-27 23:23:15

Video
ID                                       : 1
Format                                   : AVC
Format/Info                              : Advanced Video Codec
Format profile                           : High@L4.1
Format settings                          : CABAC / 8 Ref Frames
Format settings, CABAC                   : Yes
Format settings, ReFrames                : 8 frames
Codec ID                                 : avc1
Codec ID/Info                            : Advanced Video Coding
Duration                                 : 23 min 36 s
Bit rate                                 : 1 711 kb/s
Maximum bit rate                         : 6 359 kb/s
Width                                    : 1 280 pixels
Height                                   : 720 pixels
Display aspect ratio                     : 16:9
Frame rate mode                          : Constant
Frame rate                               : 23.976 (24000/1001) FPS
Color space                              : YUV
Chroma subsampling                       : 4:2:0
Bit depth                                : 8 bits
Scan type                                : Progressive
Bits/(Pixel*Frame)                       : 0.077
Stream size                              : 289 MiB (93%)
Title                                    : Imported with GPAC 0.4.6-DEV (build 1)
Writing library                          : x264 core 79 r1342kMod e8501ef
Encoding settings                        : cabac=1 / ref=8 / deblock=1:0:0 / analyse=0x3:0x133 / me=umh / subme=9 / psy=1 / psy_rd=1.0:0.0 / mixed_ref=1 / me_range=16 / chroma_me=1 / trellis=2 / 8x8dct=1 / cqm=0 / deadzone=21,11 / chroma_qp_offset=-2 / threads=12 / nr=0 / decimate=1 / mbaff=0 / constrained_intra=0 / bframes=3 / b_pyramid=0 / b_adapt=2 / b_bias=0 / direct=3 / wpredb=1 / wpredp=2 / keyint=250 / keyint_min=25 / scenecut=40 / rc_lookahead=60 / rc=crf / mbtree=1 / crf=18.0000 / qcomp=0.50 / qpmin=10 / qpmax=51 / qpstep=4 / vbv_maxrate=24000 / vbv_bufsize=24000 / ip_ratio=1.40 / aq=1:1.00
Encoded date                             : UTC 2015-01-27 23:23:15
Tagged date                              : UTC 2015-01-27 23:23:19
Codec configuration box                  : avcC

Audio
ID                                       : 2
Format                                   : AAC LC
Format/Info                              : Advanced Audio Codec Low Complexity
Codec ID                                 : mp4a-40-2
Duration                                 : 23 min 37 s
Bit rate mode                            : Variable
Bit rate                                 : 128 kb/s
Maximum bit rate                         : 158 kb/s
Channel(s)                               : 2 channels
Channel layout                           : L R
Sampling rate                            : 44.1 kHz
Frame rate                               : 43.066 FPS (1024 SPF)
Compression mode                         : Lossy
Stream size                              : 21.6 MiB (7%)
Encoded date                             : UTC 2015-01-27 23:23:19
Tagged date                              : UTC 2015-01-27 23:23:19

Other Files in this Torrent
[DeadFish]_Hunter_x_Hunter_(2011)_-_001_[720p][AAC].mp4
beta
Anime DDL+NZB mirror
Current Time: 13/06/2024 04:18



About/FAQs

Discord