[DB]Made in Abyss_-_11_(Dual Audio_10bit_BD1080p_x265).mkv


File Size267.7 MB (280,696,238 bytes)
DownloadClickNUpload | Go4Up | Jheberg | MultiUp | OpenLoad | Sendspace | SolidFiles | ZippyShare
HashesCRC32: 0586A811, MD5: 524FA1A8509E159B53FB0D8800AE0B54, SHA1: CB0EF64452DC3DE005B83685DA1DB7ABDE5AC5A5, SHA256: 47A5B24BB267EE9F94A6AA831A0F9A144D4260CCA19F6B2D597F7AF07F784E23, ED2K: 54314A6488343DC65E4671E5D0BC50C2
Screenshots
screenshotscreenshotscreenshotscreenshotscreenshot
SubtitlesAll Attachments | Signs & Songs [eng, PGS], eng [PGS], [Scum] [eng, ASS]
Additional Info
General
Unique ID                                : 21036104477419654841960335442948916272 (0xFD36806B9E17A6CA8A3CAFBBD740430)
Complete name                            : [DB]Made in Abyss_-_11_(Dual Audio_10bit_BD1080p_x265).mkv
Format                                   : Matroska
Format version                           : Version 4 / Version 2
File size                                : 268 MiB
Duration                                 : 24 min 43 s
Overall bit rate                         : 1 514 kb/s
Encoded date                             : UTC 2018-10-26 21:28:04
Writing application                      : mkvmerge v28.2.0 ('The Awakening') 64-bit
Writing library                          : libebml v1.3.6 + libmatroska v1.4.9
Attachments                              : Barmeno-Roman.ttf / LT.ttf / LTFinnegan MediumItalic.ttf / maagkramp.ttf / playtime.ttf / Qlassik_TB.otf / Remains.ttf

Video
ID                                       : 1
Format                                   : HEVC
Format/Info                              : High Efficiency Video Coding
Format profile                           : Main 10@L4@Main
Codec ID                                 : V_MPEGH/ISO/HEVC
Duration                                 : 24 min 43 s
Bit rate                                 : 1 225 kb/s
Width                                    : 1 920 pixels
Height                                   : 1 080 pixels
Display aspect ratio                     : 16:9
Frame rate mode                          : Constant
Frame rate                               : 23.976 (24000/1001) FPS
Color space                              : YUV
Chroma subsampling                       : 4:2:0
Bit depth                                : 10 bits
Bits/(Pixel*Frame)                       : 0.025
Stream size                              : 217 MiB (81%)
Writing library                          : x265 2.8+74-fd517ae68f93:[Windows][GCC 8.2.0][64 bit] 10bit
Encoding settings                        : cpuid=1111039 / frame-threads=3 / numa-pools=8 / wpp / no-pmode / no-pme / no-psnr / no-ssim / log-level=2 / input-csp=1 / input-res=1920x1080 / interlace=0 / total-frames=35568 / level-idc=0 / high-tier=1 / uhd-bd=0 / ref=3 / no-allow-non-conformance / no-repeat-headers / annexb / no-aud / no-hrd / info / hash=0 / no-temporal-layers / open-gop / min-keyint=23 / keyint=250 / gop-lookahead=0 / bframes=4 / b-adapt=2 / b-pyramid / bframe-bias=0 / rc-lookahead=20 / lookahead-slices=6 / scenecut=40 / radl=0 / no-intra-refresh / ctu=64 / min-cu-size=8 / no-rect / no-amp / max-tu-size=32 / tu-inter-depth=1 / tu-intra-depth=1 / limit-tu=0 / rdoq-level=0 / dynamic-rd=0.00 / no-ssim-rd / signhide / no-tskip / nr-intra=0 / nr-inter=0 / no-constrained-intra / strong-intra-smoothing / max-merge=2 / limit-refs=3 / no-limit-modes / me=1 / subme=2 / merange=57 / temporal-mvp / weightp / no-weightb / no-analyze-src-pics / deblock=0:0 / sao / no-sao-non-deblock / rd=3 / no-early-skip / rskip / no-fast-intra / no-tskip-fast / no-cu-lossless / no-b-intra / no-splitrd-skip / rdpenalty=0 / psy-rd=2.00 / psy-rdoq=0.00 / no-rd-refine / no-lossless / cbqpoffs=0 / crqpoffs=0 / rc=crf / crf=20.0 / qcomp=0.60 / qpstep=4 / stats-write=0 / stats-read=0 / ipratio=1.40 / pbratio=1.30 / aq-mode=1 / aq-strength=1.00 / cutree / zone-count=0 / no-strict-cbr / qg-size=32 / no-rc-grain / qpmax=69 / qpmin=0 / no-const-vbv / sar=1 / overscan=0 / videoformat=5 / range=0 / colorprim=2 / transfer=2 / colormatrix=2 / chromaloc=0 / display-window=0 / max-cll=0,0 / min-luma=0 / max-luma=1023 / log2-max-poc-lsb=8 / vui-timing-info / vui-hrd-info / slices=1 / no-opt-qp-pps / no-opt-ref-list-length-pps / no-multi-pass-opt-rps / scenecut-bias=0.05 / no-opt-cu-delta-qp / no-aq-motion / no-hdr / no-hdr-opt / no-dhdr10-opt / no-idr-recovery-sei / analysis-reuse-level=5 / scale-factor=0 / refine-intra=0 / refine-inter=0 / refine-mv=0 / no-limit-sao / ctu-info=0 / no-lowpass-dct / refine-mv-type=0 / copy-pic=1 / max-ausize-factor=1.0 / no-dynamic-refine / no-single-sei
Default                                  : Yes
Forced                                   : No

Audio #1
ID                                       : 2
Format                                   : AAC
Format/Info                              : Advanced Audio Codec
Format profile                           : LC
Codec ID                                 : A_AAC
Duration                                 : 23 min 43 s
Bit rate                                 : 140 kb/s
Channel(s)                               : 2 channels
Channel positions                        : Front: L R
Sampling rate                            : 48.0 kHz
Frame rate                               : 46.875 FPS (1024 spf)
Compression mode                         : Lossy
Delay relative to video                  : 9 ms
Stream size                              : 23.8 MiB (9%)
Title                                    : Stereo
Language                                 : English
Default                                  : Yes
Forced                                   : No

Audio #2
ID                                       : 3
Format                                   : AAC
Format/Info                              : Advanced Audio Codec
Format profile                           : LC
Codec ID                                 : A_AAC
Duration                                 : 23 min 43 s
Bit rate                                 : 144 kb/s
Channel(s)                               : 2 channels
Channel positions                        : Front: L R
Sampling rate                            : 48.0 kHz
Frame rate                               : 46.875 FPS (1024 spf)
Compression mode                         : Lossy
Delay relative to video                  : 9 ms
Stream size                              : 23.9 MiB (9%)
Title                                    : Stereo
Language                                 : Japanese
Default                                  : No
Forced                                   : No

Text #1
ID                                       : 4
Format                                   : PGS
Muxing mode                              : zlib
Codec ID                                 : S_HDMV/PGS
Codec ID/Info                            : Picture based subtitle format used on BDs/HD-DVDs
Duration                                 : 19 min 52 s
Bit rate                                 : 4 510 b/s
Count of elements                        : 49
Stream size                              : 657 KiB (0%)
Title                                    : Signs & Songs
Language                                 : English
Default                                  : Yes
Forced                                   : No

Text #2
ID                                       : 5
Format                                   : PGS
Muxing mode                              : zlib
Codec ID                                 : S_HDMV/PGS
Codec ID/Info                            : Picture based subtitle format used on BDs/HD-DVDs
Duration                                 : 23 min 37 s
Bit rate                                 : 50.9 kb/s
Count of elements                        : 595
Stream size                              : 8.60 MiB (3%)
Language                                 : English
Default                                  : No
Forced                                   : No

Text #3
ID                                       : 6
Format                                   : ASS
Codec ID                                 : S_TEXT/ASS
Codec ID/Info                            : Advanced Sub Station Alpha
Duration                                 : 23 min 37 s
Bit rate                                 : 429 b/s
Count of elements                        : 383
Compression mode                         : Lossless
Stream size                              : 74.3 KiB (0%)
Title                                    : [Scum]
Language                                 : English
Default                                  : No
Forced                                   : Yes

Menu
00:00:00.000                             : en:Chapter 01
00:03:33.588                             : en:Chapter 02
00:05:03.553                             : en:Chapter 03
00:13:38.609                             : en:Chapter 04
00:22:00.569                             : en:Chapter 05
00:23:30.575                             : en:Chapter 06
00:23:42.421                             : en:Chapter 07

Other Files in this Torrent
[DB]Made in Abyss_-_11_(Dual Audio_10bit_BD1080p_x265).mkv
beta
Anime DDL+NZB mirror
Current Time: 17/06/2024 09:56



About/FAQs

Discord