Date A Bullet - ED subs [Luiza Only wish] (『デート・ア・バレット デッド・オア・バレット』EDテーマ).mkv


File Size28.45 MB (29,832,069 bytes)
DownloadAnonFiles | ClickNUpload | DropAPK | Free | MultiUp
  • BdUpload
  • DownAce
  • Fichier
  • FileCloud
  • Filerio
  • FilesCdn
  • IndiShare
  • Kbagi
  • Turbobit
  • UpToBox
  • Uppit
| Sendspace | SolidFiles | ZippyShare
HashesCRC32: 77E5696F, MD5: 91C642960D2C462D2C2534A54FCA517E, SHA1: EBA9F152904284BD13FE8728F93D3BEE63E47A98, SHA256: 3AE3AEEC097310FCF80932D36183A143F02155DEBD8AF619C4DD105DB771A820, ED2K: A308438BD6241F93F9AA7275058AC528
Screenshots
screenshotscreenshot
SubtitlesAll Attachments | und [ASS]
Additional Info
General
Unique ID                                : 199096774500995798468528865785434342683 (0x95C8A4DC26A9B9B7F6A3A9D6973C051B)
Complete name                            : Date A Bullet - ED subs [Luiza Only wish] (『デート・ア・バレット デッド・オア・バレット』EDテーマ).mkv
Format                                   : Matroska
Format version                           : Version 4
File size                                : 28.5 MiB
Duration                                 : 1 min 30 s
Overall bit rate                         : 2 631 kb/s
Encoded date                             : UTC 2020-08-27 09:39:46
Writing application                      : mkvmerge v43.0.0 ('The Quartermaster') 64-bit
Writing library                          : libebml v1.3.10 + libmatroska v1.5.2

Video
ID                                       : 1
Format                                   : AVC
Format/Info                              : Advanced Video Codec
Format profile                           : High@L4
Format settings                          : CABAC / 3 Ref Frames
Format settings, CABAC                   : Yes
Format settings, ReFrames                : 3 frames
Codec ID                                 : V_MPEG4/ISO/AVC
Duration                                 : 1 min 30 s
Bit rate                                 : 2 501 kb/s
Width                                    : 1 920 pixels
Height                                   : 1 080 pixels
Display aspect ratio                     : 16:9
Frame rate mode                          : Constant
Frame rate                               : 29.970 (30000/1001) FPS
Color space                              : YUV
Chroma subsampling                       : 4:2:0
Bit depth                                : 8 bits
Scan type                                : Progressive
Bits/(Pixel*Frame)                       : 0.040
Stream size                              : 27.0 MiB (95%)
Default                                  : Yes
Forced                                   : No
Color range                              : Limited
Color primaries                          : BT.709
Transfer characteristics                 : BT.709
Matrix coefficients                      : BT.709

Audio
ID                                       : 2
Format                                   : AAC LC
Format/Info                              : Advanced Audio Codec Low Complexity
Codec ID                                 : A_AAC-2
Duration                                 : 1 min 30 s
Bit rate                                 : 128 kb/s
Channel(s)                               : 2 channels
Channel layout                           : L R
Sampling rate                            : 44.1 kHz
Frame rate                               : 43.066 FPS (1024 SPF)
Compression mode                         : Lossy
Stream size                              : 1.38 MiB (5%)
Language                                 : English
Default                                  : Yes
Forced                                   : No

Text
ID                                       : 3
Format                                   : ASS
Codec ID                                 : S_TEXT/ASS
Codec ID/Info                            : Advanced Sub Station Alpha
Duration                                 : 1 min 24 s
Bit rate                                 : 41 b/s
Count of elements                        : 10
Compression mode                         : Lossless
Stream size                              : 437 Bytes (0%)
Default                                  : Yes
Forced                                   : No
beta
Anime DDL+NZB mirror
Current Time: 25/07/2024 16:10



About/FAQs

Discord